  0
SECTION
  2
HEADER
  9
$ACADVER
  1
AC1015
  9
$ACADMAINTVER
 70
    18
  9
$DWGCODEPAGE
  3
ANSI_1252
  9
$INSBASE
 10
0.0
 20
0.0
 30
0.0
  9
$EXTMIN
 10
0.0
 20
0.0
 30
0.0
  9
$EXTMAX
 10
297.0
 20
210.0
 30
0.0
  9
$LIMMIN
 10
0.0
 20
0.0
  9
$LIMMAX
 10
297.0
 20
210.0
  9
$ORTHOMODE
 70
     0
  9
$REGENMODE
 70
     1
  9
$FILLMODE
 70
     1
  9
$QTEXTMODE
 70
     0
  9
$MIRRTEXT
 70
     0
  9
$LTSCALE
 40
1.0
  9
$ATTMODE
 70
     1
  9
$TEXTSIZE
 40
0.2
  9
$TRACEWID
 40
0.05
  9
$TEXTSTYLE
  7
Standard
  9
$CLAYER
  8
0
  9
$CELTYPE
  6
ByLayer
  9
$CECOLOR
 62
   256
  9
$CELTSCALE
 40
1.0
  9
$DISPSILH
 70
     0
  9
$DIMSCALE
 40
1.0
  9
$DIMASZ
 40
1.799999999999999
  9
$DIMEXO
 40
0.0625
  9
$DIMDLI
 40
0.38
  9
$DIMRND
 40
0.0
  9
$DIMDLE
 40
0.0
  9
$DIMEXE
 40
0.18
  9
$DIMTP
 40
0.0
  9
$DIMTM
 40
0.0
  9
$DIMTXT
 40
0.3499999940395355
  9
$DIMCEN
 40
0.09
  9
$DIMTSZ
 40
0.0
  9
$DIMTOL
 70
     0
  9
$DIMLIM
 70
     0
  9
$DIMTIH
 70
     1
  9
$DIMTOH
 70
     1
  9
$DIMSE1
 70
     0
  9
$DIMSE2
 70
     0
  9
$DIMTAD
 70
     0
  9
$DIMZIN
 70
     0
  9
$DIMBLK
  1

  9
$DIMASO
 70
     1
  9
$DIMSHO
 70
     1
  9
$DIMPOST
  1

  9
$DIMAPOST
  1

  9
$DIMALT
 70
     0
  9
$DIMALTD
 70
     2
  9
$DIMALTF
 40
25.4
  9
$DIMLFAC
 40
1.0
  9
$DIMTOFL
 70
     0
  9
$DIMTVP
 40
0.0
  9
$DIMTIX
 70
     0
  9
$DIMSOXD
 70
     0
  9
$DIMSAH
 70
     0
  9
$DIMBLK1
  1

  9
$DIMBLK2
  1

  9
$DIMSTYLE
  2
Standard
  9
$DIMCLRD
 70
     0
  9
$DIMCLRE
 70
     0
  9
$DIMCLRT
 70
     0
  9
$DIMTFAC
 40
1.0
  9
$DIMGAP
 40
0.09
  9
$DIMJUST
 70
     0
  9
$DIMSD1
 70
     0
  9
$DIMSD2
 70
     0
  9
$DIMTOLJ
 70
     1
  9
$DIMTZIN
 70
     0
  9
$DIMALTZ
 70
     0
  9
$DIMALTTZ
 70
     0
  9
$DIMUPT
 70
     0
  9
$DIMDEC
 70
     4
  9
$DIMTDEC
 70
     4
  9
$DIMALTU
 70
     2
  9
$DIMALTTD
 70
     2
  9
$DIMTXSTY
  7
Standard
  9
$DIMAUNIT
 70
     0
  9
$DIMADEC
 70
     0
  9
$DIMALTRND
 40
0.0
  9
$DIMAZIN
 70
     0
  9
$DIMDSEP
 70
    46
  9
$DIMATFIT
 70
     3
  9
$DIMFRAC
 70
     0
  9
$DIMLDRBLK
  1

  9
$DIMLUNIT
 70
     2
  9
$DIMLWD
 70
    -2
  9
$DIMLWE
 70
    -2
  9
$DIMTMOVE
 70
     0
  9
$LUNITS
 70
     2
  9
$LUPREC
 70
     4
  9
$SKETCHINC
 40
0.1
  9
$FILLETRAD
 40
0.0
  9
$AUNITS
 70
     0
  9
$AUPREC
 70
     0
  9
$MENU
  1
.
  9
$ELEVATION
 40
0.0
  9
$PELEVATION
 40
0.0
  9
$THICKNESS
 40
0.0
  9
$LIMCHECK
 70
     0
  9
$CHAMFERA
 40
0.0
  9
$CHAMFERB
 40
0.0
  9
$CHAMFERC
 40
0.0
  9
$CHAMFERD
 40
0.0
  9
$SKPOLY
 70
     0
  9
$TDCREATE
 40
2454105.754946030
  9
$TDUCREATE
 40
2454105.713279363
  9
$TDUPDATE
 40
2454105.754946030
  9
$TDUUPDATE
 40
2454105.713279363
  9
$TDINDWG
 40
0.0000887963
  9
$TDUSRTIMER
 40
0.0000887963
  9
$USRTIMER
 70
     1
  9
$ANGBASE
 50
0.0
  9
$ANGDIR
 70
     0
  9
$PDMODE
 70
     0
  9
$PDSIZE
 40
0.0
  9
$PLINEWID
 40
0.0
  9
$SPLFRAME
 70
     0
  9
$SPLINETYPE
 70
     6
  9
$SPLINESEGS
 70
     8
  9
$HANDSEED
  5
EF7
  9
$SURFTAB1
 70
     6
  9
$SURFTAB2
 70
     6
  9
$SURFTYPE
 70
     6
  9
$SURFU
 70
     6
  9
$SURFV
 70
     6
  9
$UCSBASE
  2

  9
$UCSNAME
  2

  9
$UCSORG
 10
0.0
 20
0.0
 30
0.0
  9
$UCSXDIR
 10
1.0
 20
0.0
 30
0.0
  9
$UCSYDIR
 10
0.0
 20
1.0
 30
0.0
  9
$UCSORTHOREF
  2

  9
$UCSORTHOVIEW
 70
     0
  9
$UCSORGTOP
 10
0.0
 20
0.0
 30
0.0
  9
$UCSORGBOTTOM
 10
0.0
 20
0.0
 30
0.0
  9
$UCSORGLEFT
 10
0.0
 20
0.0
 30
0.0
  9
$UCSORGRIGHT
 10
0.0
 20
0.0
 30
0.0
  9
$UCSORGFRONT
 10
0.0
 20
0.0
 30
0.0
  9
$UCSORGBACK
 10
0.0
 20
0.0
 30
0.0
  9
$PUCSBASE
  2

  9
$PUCSNAME
  2

  9
$PUCSORG
 10
0.0
 20
0.0
 30
0.0
  9
$PUCSXDIR
 10
1.0
 20
0.0
 30
0.0
  9
$PUCSYDIR
 10
0.0
 20
1.0
 30
0.0
  9
$PUCSORTHOREF
  2

  9
$PUCSORTHOVIEW
 70
     0
  9
$PUCSORGTOP
 10
0.0
 20
0.0
 30
0.0
  9
$PUCSORGBOTTOM
 10
0.0
 20
0.0
 30
0.0
  9
$PUCSORGLEFT
 10
0.0
 20
0.0
 30
0.0
  9
$PUCSORGRIGHT
 10
0.0
 20
0.0
 30
0.0
  9
$PUCSORGFRONT
 10
0.0
 20
0.0
 30
0.0
  9
$PUCSORGBACK
 10
0.0
 20
0.0
 30
0.0
  9
$USERI1
 70
     0
  9
$USERI2
 70
     0
  9
$USERI3
 70
     0
  9
$USERI4
 70
     0
  9
$USERI5
 70
     0
  9
$USERR1
 40
0.0
  9
$USERR2
 40
0.0
  9
$USERR3
 40
0.0
  9
$USERR4
 40
0.0
  9
$USERR5
 40
0.0
  9
$WORLDVIEW
 70
     1
  9
$SHADEDGE
 70
     3
  9
$SHADEDIF
 70
    70
  9
$TILEMODE
 70
     1
  9
$MAXACTVP
 70
    64
  9
$PINSBASE
 10
0.0
 20
0.0
 30
0.0
  9
$PLIMCHECK
 70
     0
  9
$PEXTMIN
 10
0.0
 20
0.0
 30
0.0
  9
$PEXTMAX
 10
297.0
 20
210.0
 30
0.0
  9
$PLIMMIN
 10
0.0
 20
0.0
  9
$PLIMMAX
 10
297.0
 20
210.0
  9
$UNITMODE
 70
     0
  9
$VISRETAIN
 70
     1
  9
$PLINEGEN
 70
     0
  9
$PSLTSCALE
 70
     1
  9
$TREEDEPTH
 70
  3020
  9
$CMLSTYLE
  2
Standard
  9
$CMLJUST
 70
     0
  9
$CMLSCALE
 40
1.0
  9
$PROXYGRAPHICS
 70
     1
  9
$MEASUREMENT
 70
     1
  9
$CELWEIGHT
370
    -1
  9
$ENDCAPS
280
     0
  9
$JOINSTYLE
280
     0
  9
$LWDISPLAY
290
     0
  9
$INSUNITS
 70
     0
  9
$HYPERLINKBASE
  1

  9
$STYLESHEET
  1

  9
$XEDIT
290
     1
  9
$CEPSNTYPE
380
     0
  9
$PSTYLEMODE
290
     1
  9
$FINGERPRINTGUID
  2
{C714D7F6-7017-489E-AE4B-BB513952F6F8}
  9
$VERSIONGUID
  2
{C24AD804-F257-4B32-8236-8216F9480916}
  9
$EXTNAMES
290
     1
  9
$PSVPSCALE
 40
0.0
  9
$OLESTARTUP
290
     0
  0
ENDSEC
  0
SECTION
  2
CLASSES
  0
CLASS
  1
ACDBDICTIONARYWDFLT
  2
AcDbDictionaryWithDefault
  3
ObjectDBX Classes
 90
        0
280
     0
281
     0
  0
CLASS
  1
MATERIAL
  2
AcDbMaterial
  3
ObjectDBX Classes
 90
     1024
280
     0
281
     0
  0
CLASS
  1
VISUALSTYLE
  2
AcDbVisualStyle
  3
ObjectDBX Classes
 90
     4095
280
     0
281
     0
  0
CLASS
  1
TABLESTYLE
  2
AcDbTableStyle
  3
ObjectDBX Classes
 90
     4095
280
     0
281
     0
  0
CLASS
  1
DICTIONARYVAR
  2
AcDbDictionaryVar
  3
ObjectDBX Classes
 90
        0
280
     0
281
     0
  0
CLASS
  1
ACDBPLACEHOLDER
  2
AcDbPlaceHolder
  3
ObjectDBX Classes
 90
        0
280
     0
281
     0
  0
CLASS
  1
LAYOUT
  2
AcDbLayout
  3
ObjectDBX Classes
 90
        0
280
     0
281
     0
  0
ENDSEC
  0
SECTION
  2
TABLES
  0
TABLE
  2
VPORT
  5
8
330
0
100
AcDbSymbolTable
 70
     1
  0
VPORT
  5
28
330
8
100
AcDbSymbolTableRecord
100
AcDbViewportTableRecord
  2
*Active
 70
     0
 10
0.0
 20
0.0
 11
1.0
 21
1.0
 12
148.5
 22
105.0
 13
0.0
 23
0.0
 14
1.0
 24
1.0
 15
0.0
 25
0.0
 16
0.0
 26
0.0
 36
1.0
 17
0.0
 27
0.0
 37
0.0
 40
210.0
 41
1.414285714285714
 42
50.0
 43
0.0
 44
0.0
 50
0.0
 51
0.0
 71
     0
 72
   100
 73
     1
 74
     1
 75
     0
 76
     0
 77
     0
 78
     0
281
     0
 65
     1
110
0.0
120
0.0
130
0.0
111
1.0
121
0.0
131
0.0
112
0.0
122
1.0
132
0.0
 79
     0
146
0.0
  0
ENDTAB
  0
TABLE
  2
LTYPE
  5
5
330
0
100
AcDbSymbolTable
 70
    59
  0
LTYPE
  5
29
330
5
100
AcDbSymbolTableRecord
100
AcDbLinetypeTableRecord
  2
ByBlock
 70
     0
  3

 72
    65
 73
     0
 40
0.0
  0
LTYPE
  5
2A
330
5
100
AcDbSymbolTableRecord
100
AcDbLinetypeTableRecord
  2
ByLayer
 70
     0
  3

 72
    65
 73
     0
 40
0.0
  0
LTYPE
  5
2B
330
5
100
AcDbSymbolTableRecord
100
AcDbLinetypeTableRecord
  2
Continuous
 70
     0
  3
Solid line
 72
    65
 73
     0
 40
0.0
  0
LTYPE
  5
40
330
5
100
AcDbSymbolTableRecord
100
AcDbLinetypeTableRecord
  2
BY_STANDARD
 70
     0
  3
By Standard ____________    ____    ____   _
 72
    65
 73
     6
 40
1.240299999999999
 49
0.6614
 74
     0
 49
-0.0827
 74
     0
 49
0.1654
 74
     0
 49
-0.0827
 74
     0
 49
0.1654
 74
     0
 49
-0.0827
 74
     0
  0
LTYPE
  5
41
330
5
100
AcDbSymbolTableRecord
100
AcDbLinetypeTableRecord
  2
CHAIN
 70
     0
  3
Chain ____ _ ____ _ ____ _ ____ _ ____ _ ____
 72
    65
 73
     4
 40
0.7087
 49
0.4724000000000001
 74
     0
 49
-0.0591
 74
     0
 49
0.1181
 74
     0
 49
-0.0591
 74
     0
  0
LTYPE
  5
42
330
5
100
AcDbSymbolTableRecord
100
AcDbLinetypeTableRecord
  2
DASH_DOT
 70
     0
  3
Dash dot __ . __ . __ . __ . __ . __ . __ . __
 72
    65
 73
     4
 40
0.37
 49
0.24
 74
     0
 49
-0.06
 74
     0
 49
0.01
 74
     0
 49
-0.06
 74
     0
  0
LTYPE
  5
43
330
5
100
AcDbSymbolTableRecord
100
AcDbLinetypeTableRecord
  2
DOUBLE_DASH_DOT
 70
     0
  3
Double-Dash Dot __ __ . __ __ . __ __ . __ _
 72
    65
 73
     6
 40
0.4398
 49
0.24
 74
     0
 49
-0.06
 74
     0
 49
0.0098
 74
     0
 49
-0.06
 74
     0
 49
0.01
 74
     0
 49
-0.06
 74
     0
  0
LTYPE
  5
44
330
5
100
AcDbSymbolTableRecord
100
AcDbLinetypeTableRecord
  2
DASH_TRIPLE_DOT
 70
     0
  3
Dash Triple-Dot _ . . . _ . . . _ . . . _
 72
    65
 73
     8
 40
0.51
 49
0.24
 74
     0
 49
-0.06
 74
     0
 49
0.01
 74
     0
 49
-0.06
 74
     0
 49
0.01
 74
     0
 49
-0.06
 74
     0
 49
0.01
 74
     0
 49
-0.06
 74
     0
  0
LTYPE
  5
45
330
5
100
AcDbSymbolTableRecord
100
AcDbLinetypeTableRecord
  2
DASHED
 70
     0
  3
Dashed __ __ __ __ __ __ __ __ __ __ __ __ __ _
 72
    65
 73
     2
 40
0.2067
 49
0.1654
 74
     0
 49
-0.0413
 74
     0
  0
LTYPE
  5
46
330
5
100
AcDbSymbolTableRecord
100
AcDbLinetypeTableRecord
  2
DASH_DOUBLE_DOT
 70
     0
  3
Dash Double-Dot __ . . __ . . __ . . __ . .
 72
    65
 73
     6
 40
0.4398
 49
0.24
 74
     0
 49
-0.06
 74
     0
 49
0.0098
 74
     0
 49
-0.06
 74
     0
 49
0.01
 74
     0
 49
-0.06
 74
     0
  0
LTYPE
  5
47
330
5
100
AcDbSymbolTableRecord
100
AcDbLinetypeTableRecord
  2
DASHED_SPACE
 70
     0
  3
Dashed Space __ __ __ __ __ __ __ __ __ __ __ _
 72
    65
 73
     2
 40
0.2067
 49
0.1654
 74
     0
 49
-0.0413
 74
     0
  0
LTYPE
  5
48
330
5
100
AcDbSymbolTableRecord
100
AcDbLinetypeTableRecord
  2
DOTTED
 70
     0
  3
Dotted . . . . . . . . . . . . . . . . . . . . 
 72
    65
 73
     2
 40
0.0482
 49
0.0069
 74
     0
 49
-0.0413
 74
     0
  0
LTYPE
  5
49
330
5
100
AcDbSymbolTableRecord
100
AcDbLinetypeTableRecord
  2
DOUBLE_DASH_CHAIN
 70
     0
  3
Double-Dash Chain ______  __  __  ______  __  _
 72
    65
 73
     6
 40
1.240299999999999
 49
0.6614
 74
     0
 49
-0.0827
 74
     0
 49
0.1654
 74
     0
 49
-0.0827
 74
     0
 49
0.1654
 74
     0
 49
-0.0827
 74
     0
  0
LTYPE
  5
4B
330
5
100
AcDbSymbolTableRecord
100
AcDbLinetypeTableRecord
  2
DOUBLE_DASH_DOUBLE_DOT
 70
     0
  3
Double-Dash Double-dot _ _ . . _ _ . . _
 72
    65
 73
     8
 40
0.7400000000000001
 49
0.24
 74
     0
 49
-0.06
 74
     0
 49
0.24
 74
     0
 49
-0.06
 74
     0
 49
0.01
 74
     0
 49
-0.06
 74
     0
 49
0.01
 74
     0
 49
-0.06
 74
     0
  0
LTYPE
  5
4C
330
5
100
AcDbSymbolTableRecord
100
AcDbLinetypeTableRecord
  2
DOUBLE_DASH_TRIPLE_DOT
 70
     0
  3
Double Dash Triple Dot __ __ . . . __ __ . .
 72
    65
 73
    10
 40
0.8100000000000001
 49
0.24
 74
     0
 49
-0.06
 74
     0
 49
0.24
 74
     0
 49
-0.06
 74
     0
 49
0.01
 74
     0
 49
-0.06
 74
     0
 49
0.01
 74
     0
 49
-0.06
 74
     0
 49
0.01
 74
     0
 49
-0.06
 74
     0
  0
LTYPE
  5
4D
330
5
100
AcDbSymbolTableRecord
100
AcDbLinetypeTableRecord
  2
LONG_DASH_DOTTED
 70
     0
  3
Long Dash Dotted ____ . ____ . ____ . ____ . _
 72
    65
 73
     4
 40
0.3543
 49
0.2362
 74
     0
 49
-0.0295
 74
     0
 49
0.0591
 74
     0
 49
-0.0295
 74
     0
  0
LTYPE
  5
4E
330
5
100
AcDbSymbolTableRecord
100
AcDbLinetypeTableRecord
  2
LONG_DASH_DOUBLE_DOT
 70
     0
  3
Long Dash Double Dot ________  .  .  ________  
 72
    65
 73
     6
 40
0.6799999999999999
 49
0.48
 74
     0
 49
-0.06
 74
     0
 49
0.01
 74
     0
 49
-0.06
 74
     0
 49
0.01
 74
     0
 49
-0.06
 74
     0
  0
LTYPE
  5
4F
330
5
100
AcDbSymbolTableRecord
100
AcDbLinetypeTableRecord
  2
LONG_DASH_TRIPLE_DOT
 70
     0
  3
Long Dash Triple Dot ____ ... ____ ... ____
 72
    65
 73
     8
 40
0.3689
 49
0.2362
 74
     0
 49
-0.0295
 74
     0
 49
0.0049
 74
     0
 49
-0.0295
 74
     0
 49
0.0049
 74
     0
 49
-0.0295
 74
     0
 49
0.0049
 74
     0
 49
-0.0295
 74
     0
  0
LTYPE
  5
50
330
5
100
AcDbSymbolTableRecord
100
AcDbLinetypeTableRecord
  2
BORDER
 70
     0
  3
Border __ __ . __ __ . __ __ . __ __ . __ __ .
 72
    65
 73
     6
 40
1.75
 49
0.5
 74
     0
 49
-0.25
 74
     0
 49
0.5
 74
     0
 49
-0.25
 74
     0
 49
0.0
 74
     0
 49
-0.25
 74
     0
  0
LTYPE
  5
51
330
5
100
AcDbSymbolTableRecord
100
AcDbLinetypeTableRecord
  2
BORDER2
 70
     0
  3
Border (.5x) __.__.__.__.__.__.__.__.__.__.__.
 72
    65
 73
     6
 40
0.875
 49
0.25
 74
     0
 49
-0.125
 74
     0
 49
0.25
 74
     0
 49
-0.125
 74
     0
 49
0.0
 74
     0
 49
-0.125
 74
     0
  0
LTYPE
  5
52
330
5
100
AcDbSymbolTableRecord
100
AcDbLinetypeTableRecord
  2
BORDERX2
 70
     0
  3
Border (2x) ____  ____  .  ____  ____  .  ___
 72
    65
 73
     6
 40
3.5
 49
1.0
 74
     0
 49
-0.5
 74
     0
 49
1.0
 74
     0
 49
-0.5
 74
     0
 49
0.0
 74
     0
 49
-0.5
 74
     0
  0
LTYPE
  5
53
330
5
100
AcDbSymbolTableRecord
100
AcDbLinetypeTableRecord
  2
CENTER
 70
     0
  3
Center ____ _ ____ _ ____ _ ____ _ ____ _ ____
 72
    65
 73
     4
 40
2.0
 49
1.25
 74
     0
 49
-0.25
 74
     0
 49
0.25
 74
     0
 49
-0.25
 74
     0
  0
LTYPE
  5
54
330
5
100
AcDbSymbolTableRecord
100
AcDbLinetypeTableRecord
  2
CENTER2
 70
     0
  3
Center (.5x) ___ _ ___ _ ___ _ ___ _ ___ _ ___
 72
    65
 73
     4
 40
1.125
 49
0.75
 74
     0
 49
-0.125
 74
     0
 49
0.125
 74
     0
 49
-0.125
 74
     0
  0
LTYPE
  5
55
330
5
100
AcDbSymbolTableRecord
100
AcDbLinetypeTableRecord
  2
CENTERX2
 70
     0
  3
Center (2x) ________  __  ________  __  _____
 72
    65
 73
     4
 40
4.0
 49
2.5
 74
     0
 49
-0.5
 74
     0
 49
0.5
 74
     0
 49
-0.5
 74
     0
  0
LTYPE
  5
56
330
5
100
AcDbSymbolTableRecord
100
AcDbLinetypeTableRecord
  2
DASHDOT2
 70
     0
  3
Dash dot (.5x) _._._._._._._._._._._._._._._.
 72
    65
 73
     4
 40
0.5
 49
0.25
 74
     0
 49
-0.125
 74
     0
 49
0.0
 74
     0
 49
-0.125
 74
     0
  0
LTYPE
  5
57
330
5
100
AcDbSymbolTableRecord
100
AcDbLinetypeTableRecord
  2
DASHDOTX2
 70
     0
  3
Dash dot (2x) ____  .  ____  .  ____  .  ___
 72
    65
 73
     4
 40
2.0
 49
1.0
 74
     0
 49
-0.5
 74
     0
 49
0.0
 74
     0
 49
-0.5
 74
     0
  0
LTYPE
  5
59
330
5
100
AcDbSymbolTableRecord
100
AcDbLinetypeTableRecord
  2
DASHED2
 70
     0
  3
Dashed (.5x) _ _ _ _ _ _ _ _ _ _ _ _ _ _ _ _ _
 72
    65
 73
     2
 40
0.375
 49
0.25
 74
     0
 49
-0.125
 74
     0
  0
LTYPE
  5
5A
330
5
100
AcDbSymbolTableRecord
100
AcDbLinetypeTableRecord
  2
DASHEDX2
 70
     0
  3
Dashed (2x) ____  ____  ____  ____  ____  ___
 72
    65
 73
     2
 40
1.5
 49
1.0
 74
     0
 49
-0.5
 74
     0
  0
LTYPE
  5
5B
330
5
100
AcDbSymbolTableRecord
100
AcDbLinetypeTableRecord
  2
DIVIDE
 70
     0
  3
Divide ____ . . ____ . . ____ . . ____ . . ____
 72
    65
 73
     6
 40
1.25
 49
0.5
 74
     0
 49
-0.25
 74
     0
 49
0.0
 74
     0
 49
-0.25
 74
     0
 49
0.0
 74
     0
 49
-0.25
 74
     0
  0
LTYPE
  5
5C
330
5
100
AcDbSymbolTableRecord
100
AcDbLinetypeTableRecord
  2
DIVIDE2
 70
     0
  3
Divide (.5x) __..__..__..__..__..__..__..__.._
 72
    65
 73
     6
 40
0.625
 49
0.25
 74
     0
 49
-0.125
 74
     0
 49
0.0
 74
     0
 49
-0.125
 74
     0
 49
0.0
 74
     0
 49
-0.125
 74
     0
  0
LTYPE
  5
5D
330
5
100
AcDbSymbolTableRecord
100
AcDbLinetypeTableRecord
  2
DIVIDEX2
 70
     0
  3
Divide (2x) ________  .  .  ________  .  .  _
 72
    65
 73
     6
 40
2.5
 49
1.0
 74
     0
 49
-0.5
 74
     0
 49
0.0
 74
     0
 49
-0.5
 74
     0
 49
0.0
 74
     0
 49
-0.5
 74
     0
  0
LTYPE
  5
5E
330
5
100
AcDbSymbolTableRecord
100
AcDbLinetypeTableRecord
  2
DOT
 70
     0
  3
Dot . . . . . . . . . . . . . . . . . . . . . .
 72
    65
 73
     2
 40
0.25
 49
0.0
 74
     0
 49
-0.25
 74
     0
  0
LTYPE
  5
5F
330
5
100
AcDbSymbolTableRecord
100
AcDbLinetypeTableRecord
  2
DOT2
 70
     0
  3
Dot (.5x) .....................................
 72
    65
 73
     2
 40
0.125
 49
0.0
 74
     0
 49
-0.125
 74
     0
  0
LTYPE
  5
60
330
5
100
AcDbSymbolTableRecord
100
AcDbLinetypeTableRecord
  2
DOTX2
 70
     0
  3
Dot (2x) .  .  .  .  .  .  .  .  .  .  .  .  . 
 72
    65
 73
     2
 40
0.5
 49
0.0
 74
     0
 49
-0.5
 74
     0
  0
LTYPE
  5
61
330
5
100
AcDbSymbolTableRecord
100
AcDbLinetypeTableRecord
  2
HIDDEN
 70
     0
  3
Hidden __ __ __ __ __ __ __ __ __ __ __ __ __ _
 72
    65
 73
     2
 40
0.375
 49
0.25
 74
     0
 49
-0.125
 74
     0
  0
LTYPE
  5
62
330
5
100
AcDbSymbolTableRecord
100
AcDbLinetypeTableRecord
  2
HIDDEN2
 70
     0
  3
Hidden (.5x) _ _ _ _ _ _ _ _ _ _ _ _ _ _ _ _ _
 72
    65
 73
     2
 40
0.1875
 49
0.125
 74
     0
 49
-0.0625
 74
     0
  0
LTYPE
  5
63
330
5
100
AcDbSymbolTableRecord
100
AcDbLinetypeTableRecord
  2
HIDDENX2
 70
     0
  3
Hidden (2x) ____ ____ ____ ____ ____ ____ ____
 72
    65
 73
     2
 40
0.75
 49
0.5
 74
     0
 49
-0.25
 74
     0
  0
LTYPE
  5
64
330
5
100
AcDbSymbolTableRecord
100
AcDbLinetypeTableRecord
  2
PHANTOM
 70
     0
  3
Phantom ______  __  __  ______  __  __  ______
 72
    65
 73
     6
 40
2.5
 49
1.25
 74
     0
 49
-0.25
 74
     0
 49
0.25
 74
     0
 49
-0.25
 74
     0
 49
0.25
 74
     0
 49
-0.25
 74
     0
  0
LTYPE
  5
65
330
5
100
AcDbSymbolTableRecord
100
AcDbLinetypeTableRecord
  2
PHANTOM2
 70
     0
  3
Phantom (.5x) ___ _ _ ___ _ _ ___ _ _ ___ _ _
 72
    65
 73
     6
 40
1.25
 49
0.625
 74
     0
 49
-0.125
 74
     0
 49
0.125
 74
     0
 49
-0.125
 74
     0
 49
0.125
 74
     0
 49
-0.125
 74
     0
  0
LTYPE
  5
66
330
5
100
AcDbSymbolTableRecord
100
AcDbLinetypeTableRecord
  2
PHANTOMX2
 70
     0
  3
Phantom (2x) ____________    ____    ____   _
 72
    65
 73
     6
 40
5.0
 49
2.5
 74
     0
 49
-0.5
 74
     0
 49
0.5
 74
     0
 49
-0.5
 74
     0
 49
0.5
 74
     0
 49
-0.5
 74
     0
  0
LTYPE
  5
67
330
5
100
AcDbSymbolTableRecord
100
AcDbLinetypeTableRecord
  2
ACAD_ISO02W100
 70
     0
  3
ISO dash __ __ __ __ __ __ __ __ __ __ __ __ __
 72
    65
 73
     2
 40
0.59
 49
0.47
 74
     0
 49
-0.12
 74
     0
  0
LTYPE
  5
68
330
5
100
AcDbSymbolTableRecord
100
AcDbLinetypeTableRecord
  2
ACAD_ISO03W100
 70
     0
  3
ISO dash space __    __    __    __    __    __
 72
    65
 73
     2
 40
1.179999999999999
 49
0.47
 74
     0
 49
-0.71
 74
     0
  0
LTYPE
  5
69
330
5
100
AcDbSymbolTableRecord
100
AcDbLinetypeTableRecord
  2
ACAD_ISO04W100
 70
     0
  3
ISO long-dash dot ____ . ____ . ____ . ____ . _
 72
    65
 73
     4
 40
1.179999999999999
 49
0.9399999999999998
 74
     0
 49
-0.12
 74
     0
 49
0.0
 74
     0
 49
-0.12
 74
     0
  0
LTYPE
  5
6A
330
5
100
AcDbSymbolTableRecord
100
AcDbLinetypeTableRecord
  2
ACAD_ISO05W100
 70
     0
  3
ISO long-dash double-dot ____ .. ____ .. ____ .
 72
    65
 73
     6
 40
1.299999999999999
 49
0.9399999999999998
 74
     0
 49
-0.12
 74
     0
 49
0.0
 74
     0
 49
-0.12
 74
     0
 49
0.0
 74
     0
 49
-0.12
 74
     0
  0
LTYPE
  5
6B
330
5
100
AcDbSymbolTableRecord
100
AcDbLinetypeTableRecord
  2
ACAD_ISO06W100
 70
     0
  3
ISO long-dash triple-dot ____ ... ____ ... ____
 72
    65
 73
     8
 40
1.419999999999999
 49
0.9399999999999998
 74
     0
 49
-0.12
 74
     0
 49
0.0
 74
     0
 49
-0.12
 74
     0
 49
0.0
 74
     0
 49
-0.12
 74
     0
 49
0.0
 74
     0
 49
-0.12
 74
     0
  0
LTYPE
  5
6C
330
5
100
AcDbSymbolTableRecord
100
AcDbLinetypeTableRecord
  2
ACAD_ISO07W100
 70
     0
  3
ISO dot . . . . . . . . . . . . . . . . . . . .
 72
    65
 73
     2
 40
0.12
 49
0.0
 74
     0
 49
-0.12
 74
     0
  0
LTYPE
  5
6D
330
5
100
AcDbSymbolTableRecord
100
AcDbLinetypeTableRecord
  2
ACAD_ISO08W100
 70
     0
  3
ISO long-dash short-dash ____ __ ____ __ ____ _
 72
    65
 73
     4
 40
0.95
 49
0.47
 74
     0
 49
-0.12
 74
     0
 49
0.24
 74
     0
 49
-0.12
 74
     0
  0
LTYPE
  5
6E
330
5
100
AcDbSymbolTableRecord
100
AcDbLinetypeTableRecord
  2
ACAD_ISO09W100
 70
     0
  3
ISO long-dash double-short-dash ____ __ __ ____
 72
    65
 73
     6
 40
1.31
 49
0.47
 74
     0
 49
-0.12
 74
     0
 49
0.24
 74
     0
 49
-0.12
 74
     0
 49
0.24
 74
     0
 49
-0.12
 74
     0
  0
LTYPE
  5
6F
330
5
100
AcDbSymbolTableRecord
100
AcDbLinetypeTableRecord
  2
ACAD_ISO10W100
 70
     0
  3
ISO dash dot __ . __ . __ . __ . __ . __ . __ .
 72
    65
 73
     4
 40
0.71
 49
0.47
 74
     0
 49
-0.12
 74
     0
 49
0.0
 74
     0
 49
-0.12
 74
     0
  0
LTYPE
  5
70
330
5
100
AcDbSymbolTableRecord
100
AcDbLinetypeTableRecord
  2
ACAD_ISO11W100
 70
     0
  3
ISO double-dash dot __ __ . __ __ . __ __ . __ 
 72
    65
 73
     6
 40
1.299999999999999
 49
0.47
 74
     0
 49
-0.12
 74
     0
 49
0.47
 74
     0
 49
-0.12
 74
     0
 49
0.0
 74
     0
 49
-0.12
 74
     0
  0
LTYPE
  5
71
330
5
100
AcDbSymbolTableRecord
100
AcDbLinetypeTableRecord
  2
ACAD_ISO12W100
 70
     0
  3
ISO dash double-dot __ . . __ . . __ . . __ . .
 72
    65
 73
     6
 40
0.8299999999999998
 49
0.47
 74
     0
 49
-0.12
 74
     0
 49
0.0
 74
     0
 49
-0.12
 74
     0
 49
0.0
 74
     0
 49
-0.12
 74
     0
  0
LTYPE
  5
72
330
5
100
AcDbSymbolTableRecord
100
AcDbLinetypeTableRecord
  2
ACAD_ISO13W100
 70
     0
  3
ISO double-dash double-dot __ __ . . __ __ . . 
 72
    65
 73
     8
 40
1.419999999999999
 49
0.47
 74
     0
 49
-0.12
 74
     0
 49
0.47
 74
     0
 49
-0.12
 74
     0
 49
0.0
 74
     0
 49
-0.12
 74
     0
 49
0.0
 74
     0
 49
-0.12
 74
     0
  0
LTYPE
  5
73
330
5
100
AcDbSymbolTableRecord
100
AcDbLinetypeTableRecord
  2
ACAD_ISO14W100
 70
     0
  3
ISO dash triple-dot __ . . . __ . . . __ . . . 
 72
    65
 73
     8
 40
0.95
 49
0.47
 74
     0
 49
-0.12
 74
     0
 49
0.0
 74
     0
 49
-0.12
 74
     0
 49
0.0
 74
     0
 49
-0.12
 74
     0
 49
0.0
 74
     0
 49
-0.12
 74
     0
  0
LTYPE
  5
74
330
5
100
AcDbSymbolTableRecord
100
AcDbLinetypeTableRecord
  2
ACAD_ISO15W100
 70
     0
  3
ISO double-dash triple-dot __ __ . . . __ __ . 
 72
    65
 73
    10
 40
1.539999999999999
 49
0.47
 74
     0
 49
-0.12
 74
     0
 49
0.47
 74
     0
 49
-0.12
 74
     0
 49
0.0
 74
     0
 49
-0.12
 74
     0
 49
0.0
 74
     0
 49
-0.12
 74
     0
 49
0.0
 74
     0
 49
-0.12
 74
     0
  0
LTYPE
  5
77
330
5
100
AcDbSymbolTableRecord
100
AcDbLinetypeTableRecord
  2
FENCELINE1
 70
     0
  3
Fenceline circle ----0-----0----0-----0----0---
 72
    65
 73
     4
 40
1.45
 49
0.25
 74
     0
 49
-0.1
 74
     4
 75
   133
340
76
 46
0.1
 50
0.0
 44
-0.1
 45
0.0
 49
-0.1
 74
     0
 49
1.0
 74
     0
  0
LTYPE
  5
78
330
5
100
AcDbSymbolTableRecord
100
AcDbLinetypeTableRecord
  2
FENCELINE2
 70
     0
  3
Fenceline square ----[]-----[]----[]-----[]----
 72
    65
 73
     4
 40
1.45
 49
0.25
 74
     0
 49
-0.1
 74
     4
 75
   132
340
76
 46
0.1
 50
0.0
 44
-0.1
 45
0.0
 49
-0.1
 74
     0
 49
1.0
 74
     0
  0
LTYPE
  5
79
330
5
100
AcDbSymbolTableRecord
100
AcDbLinetypeTableRecord
  2
TRACKS
 70
     0
  3
Tracks -|-|-|-|-|-|-|-|-|-|-|-|-|-|-|-|-|-|-|-|
 72
    65
 73
     2
 40
0.3
 49
0.15
 74
     4
 75
   130
340
76
 46
0.25
 50
0.0
 44
0.0
 45
0.0
 49
0.15
 74
     0
  0
LTYPE
  5
7A
330
5
100
AcDbSymbolTableRecord
100
AcDbLinetypeTableRecord
  2
BATTING
 70
     0
  3
Batting SSSSSSSSSSSSSSSSSSSSSSSSSSSSSSSSSSSSSSS
 72
    65
 73
     4
 40
0.4001000000000001
 49
0.0001
 74
     0
 49
-0.1
 74
     4
 75
   134
340
76
 46
0.1
 50
0.0
 44
-0.1
 45
0.0
 49
-0.2
 74
     4
 75
   134
340
76
 46
0.1
 50
180.0
 44
0.1
 45
0.0
 49
-0.1
 74
     0
  0
LTYPE
  5
7B
330
5
100
AcDbSymbolTableRecord
100
AcDbLinetypeTableRecord
  2
HOT_WATER_SUPPLY
 70
     0
  3
Hot water supply ---- HW ---- HW ---- HW ----
 72
    65
 73
     3
 40
0.9
 49
0.5
 74
     0
 49
-0.2
 74
     2
 75
     0
340
26
 46
0.1
 50
0.0
 44
-0.1
 45
-0.05
  9
HW
 49
-0.2
 74
     0
  0
LTYPE
  5
7C
330
5
100
AcDbSymbolTableRecord
100
AcDbLinetypeTableRecord
  2
GAS_LINE
 70
     0
  3
Gas line ----GAS----GAS----GAS----GAS----GAS---
 72
    65
 73
     3
 40
0.95
 49
0.5
 74
     0
 49
-0.2
 74
     2
 75
     0
340
26
 46
0.1
 50
0.0
 44
-0.1
 45
-0.05
  9
GAS
 49
-0.25
 74
     0
  0
LTYPE
  5
7D
330
5
100
AcDbSymbolTableRecord
100
AcDbLinetypeTableRecord
  2
ZIGZAG
 70
     0
  3
Zig zag /\/\/\/\/\/\/\/\/\/\/\/\/\/\/\/\/\/\/\/
 72
    65
 73
     4
 40
0.8001000000000001
 49
0.0001
 74
     0
 49
-0.2
 74
     4
 75
   131
340
76
 46
0.2
 50
0.0
 44
-0.2
 45
0.0
 49
-0.4
 74
     4
 75
   131
340
76
 46
0.2
 50
180.0
 44
0.2
 45
0.0
 49
-0.2
 74
     0
  0
ENDTAB
  0
TABLE
  2
LAYER
  5
2
330
0
100
AcDbSymbolTable
 70
    74
  0
LAYER
  5
25
330
2
100
AcDbSymbolTableRecord
100
AcDbLayerTableRecord
  2
0
 70
     0
 62
     7
  6
Continuous
370
    -3
390
F
  0
LAYER
  5
92
330
2
100
AcDbSymbolTableRecord
100
AcDbLayerTableRecord
  2
Bemaßungen(TC_020513_DIN)
 70
     0
 62
     7
  6
Continuous
370
    25
390
F
  0
LAYER
  5
9E
330
2
100
AcDbSymbolTableRecord
100
AcDbLayerTableRecord
  2
Gewinde(TC_020513_DIN)
 70
     0
 62
     7
  6
Continuous
370
    25
390
F
  0
LAYER
  5
A4
330
2
100
AcDbSymbolTableRecord
100
AcDbLayerTableRecord
  2
Mittellinie(TC_020513_DIN)
 70
     0
 62
     7
  6
DASH_DOT
370
    25
390
F
  0
LAYER
  5
A6
330
2
100
AcDbSymbolTableRecord
100
AcDbLayerTableRecord
  2
Mittelpunktmarkierung(TC_020513_DIN)
 70
     0
 62
     7
  6
Continuous
370
    25
390
F
  0
LAYER
  5
AF
330
2
100
AcDbSymbolTableRecord
100
AcDbLayerTableRecord
  2
Schraffur
 70
     0
 62
   179
  6
Continuous
370
     9
390
F
  0
LAYER
  5
B1
330
2
100
AcDbSymbolTableRecord
100
AcDbLayerTableRecord
  2
Sichtbare Kanten(TC_020513_DIN)
 70
     0
 62
     7
  6
Continuous
370
    50
390
F
  0
LAYER
  5
B4
330
2
100
AcDbSymbolTableRecord
100
AcDbLayerTableRecord
  2
Skizziergeometrie(ISO)
 70
     0
 62
     7
  6
Continuous
370
    50
390
F
  0
LAYER
  5
B7
330
2
100
AcDbSymbolTableRecord
100
AcDbLayerTableRecord
  2
Skizzierlinie(TC_020513_DIN)
 70
     1
 62
     3
  6
Continuous
370
    18
390
F
  0
LAYER
  5
B9
330
2
100
AcDbSymbolTableRecord
100
AcDbLayerTableRecord
  2
Stich 1-Linien(TC_020513_DIN)
 70
     0
 62
     7
  6
DASHED_SPACE
370
    25
390
F
  0
LAYER
  5
BC
330
2
100
AcDbSymbolTableRecord
100
AcDbLayerTableRecord
  2
Symbole(ISO)
 70
     0
 62
     7
  6
Continuous
370
    25
390
F
  0
LAYER
  5
BD
330
2
100
AcDbSymbolTableRecord
100
AcDbLayerTableRecord
  2
Symbole(TC_020513_DIN)
 70
     0
 62
     7
  6
Continuous
370
    35
390
F
  0
LAYER
  5
657
330
2
100
AcDbSymbolTableRecord
100
AcDbLayerTableRecord
  2
Defpoints
 70
     0
 62
     7
  6
Continuous
290
     0
370
    -3
390
F
  0
ENDTAB
  0
TABLE
  2
STYLE
  5
3
330
0
100
AcDbSymbolTable
 70
    17
  0
STYLE
  5
26
330
3
100
AcDbSymbolTableRecord
100
AcDbTextStyleTableRecord
  2
Standard
 70
     0
 40
0.0
 41
1.0
 50
0.0
 71
     0
 42
0.2
  3
ARIAL.TTF
  4

1001
ACAD
1000
Arial
1071
      256
  0
STYLE
  5
76
330
3
100
AcDbSymbolTableRecord
100
AcDbTextStyleTableRecord
  2

 70
     1
 40
0.0
 41
1.0
 50
0.0
 71
     0
 42
0.2
  3
ltypeshp.shx
  4

  0
STYLE
  5
C6
330
3
100
AcDbSymbolTableRecord
100
AcDbTextStyleTableRecord
  2
Aktuell-BSI
 70
     0
 40
0.0
 41
1.0
 50
0.0
 71
     0
 42
0.2
  3
ARIAL.TTF
  4

1001
ACAD
1000
Arial
1071
      256
  0
STYLE
  5
C7
330
3
100
AcDbSymbolTableRecord
100
AcDbTextStyleTableRecord
  2
Kopie von TC 5 mm
 70
     0
 40
0.0
 41
1.199999928474426
 50
0.0
 71
     0
 42
0.2
  3
ARIAL.TTF
  4

1001
ACAD
1000
Arial
1071
      256
  0
STYLE
  5
C8
330
3
100
AcDbSymbolTableRecord
100
AcDbTextStyleTableRecord
  2
STANDARD-TC_020513_DIN
 70
     0
 40
0.0
 41
1.0
 50
0.0
 71
     0
 42
0.2
  3
ARIAL.TTF
  4

1001
ACAD
1000
Arial
1071
      256
  0
STYLE
  5
C9
330
3
100
AcDbSymbolTableRecord
100
AcDbTextStyleTableRecord
  2
STANDARD-TC_020513_DINGroßer Text
 70
     0
 40
0.0
 41
1.0
 50
0.0
 71
     0
 42
0.2
  3
ARIAL.TTF
  4

1001
ACAD
1000
Arial
1071
      256
  0
STYLE
  5
CA
330
3
100
AcDbSymbolTableRecord
100
AcDbTextStyleTableRecord
  2
STANDARD-TC_020513_DINNach Layer
 70
     0
 40
0.0
 41
1.0
 50
0.0
 71
     0
 42
0.2
  3
ARIAL.TTF
  4

1001
ACAD
1000
Arial
1071
      256
  0
STYLE
  5
CB
330
3
100
AcDbSymbolTableRecord
100
AcDbTextStyleTableRecord
  2
TC 2_5 mm
 70
     0
 40
0.0
 41
0.899999976158142
 50
0.0
 71
     0
 42
0.2
  3
ARIAL.TTF
  4

1001
ACAD
1000
Arial
1071
      256
  0
STYLE
  5
CC
330
3
100
AcDbSymbolTableRecord
100
AcDbTextStyleTableRecord
  2
TC 3_5 mm
 70
     0
 40
0.0
 41
0.7999999523162842
 50
0.0
 71
     0
 42
0.2
  3
ARIAL.TTF
  4

1001
ACAD
1000
Arial
1071
      256
  0
STYLE
  5
CD
330
3
100
AcDbSymbolTableRecord
100
AcDbTextStyleTableRecord
  2
TC 3_5 mmGroßer Text
 70
     0
 40
0.0
 41
0.899999976158142
 50
0.0
 71
     0
 42
0.2
  3
ARIAL.TTF
  4

1001
ACAD
1000
Arial
1071
      256
  0
STYLE
  5
CE
330
3
100
AcDbSymbolTableRecord
100
AcDbTextStyleTableRecord
  2
TC 3_5 mmNach Layer
 70
     0
 40
0.0
 41
0.899999976158142
 50
0.0
 71
     0
 42
0.2
  3
ARIAL.TTF
  4

1001
ACAD
1000
Arial
1071
      256
  0
STYLE
  5
CF
330
3
100
AcDbSymbolTableRecord
100
AcDbTextStyleTableRecord
  2
TC 4 mm
 70
     0
 40
0.0
 41
1.199999928474426
 50
0.0
 71
     0
 42
0.2
  3
ARIAL.TTF
  4

1001
ACAD
1000
Arial
1071
      256
  0
STYLE
  5
D0
330
3
100
AcDbSymbolTableRecord
100
AcDbTextStyleTableRecord
  2
TC 5 mm
 70
     0
 40
0.0
 41
0.899999976158142
 50
0.0
 71
     0
 42
0.2
  3
ARIAL.TTF
  4

1001
ACAD
1000
Arial
1071
      256
  0
STYLE
  5
D1
330
3
100
AcDbSymbolTableRecord
100
AcDbTextStyleTableRecord
  2
TC 5 mmNach Layer
 70
     0
 40
0.0
 41
0.899999976158142
 50
0.0
 71
     0
 42
0.2
  3
ARIAL.TTF
  4

1001
ACAD
1000
Arial
1071
      256
  0
STYLE
  5
D2
330
3
100
AcDbSymbolTableRecord
100
AcDbTextStyleTableRecord
  2
TC 7 mm
 70
     0
 40
0.0
 41
0.899999976158142
 50
0.0
 71
     0
 42
0.2
  3
ARIAL.TTF
  4

1001
ACAD
1000
Arial
1071
      256
  0
STYLE
  5
FB
330
3
100
AcDbSymbolTableRecord
100
AcDbTextStyleTableRecord
  2
TC 2_5 mm-ISOCPEUR
 70
     0
 40
0.0
 41
0.899999976158142
 50
0.0
 71
     0
 42
0.2
  3
isocpeur.ttf
  4

1001
ACAD
1000
ISOCPEUR
1071
      256
  0
STYLE
  5
FF
330
3
100
AcDbSymbolTableRecord
100
AcDbTextStyleTableRecord
  2
TC 3_5 mm-ISOCPEUR
 70
     0
 40
0.0
 41
0.899999976158142
 50
0.0
 71
     0
 42
0.2
  3
isocpeur.ttf
  4

1001
ACAD
1000
ISOCPEUR
1071
      256
  0
ENDTAB
  0
TABLE
  2
VIEW
  5
6
330
0
100
AcDbSymbolTable
 70
     0
  0
ENDTAB
  0
TABLE
  2
UCS
  5
7
330
0
100
AcDbSymbolTable
 70
     0
  0
ENDTAB
  0
TABLE
  2
APPID
  5
9
330
0
100
AcDbSymbolTable
 70
     1
  0
APPID
  5
27
330
9
100
AcDbSymbolTableRecord
100
AcDbRegAppTableRecord
  2
ACAD
 70
     0
  0
ENDTAB
  0
TABLE
  2
DIMSTYLE
  5
A
330
0
100
AcDbSymbolTable
 70
    17
100
AcDbDimStyleTable
 71
     2
340
D3
340
3F
  0
DIMSTYLE
105
3F
330
A
100
AcDbSymbolTableRecord
100
AcDbDimStyleTableRecord
  2
Standard
 70
     0
340
26
  0
DIMSTYLE
105
D3
102
{ACAD_REACTORS
330
656
330
71C
330
7F2
330
8B2
330
972
330
A2D
330
AED
330
BB2
330
C77
330
D37
330
DFC
102
}
330
A
100
AcDbSymbolTableRecord
100
AcDbDimStyleTableRecord
  2
STANDARD-TC_020513_DIN
 70
     0
 41
2.5
 42
1.0
 43
6.0
 44
2.0
 45
0.00000001
 46
10.0
 73
     0
 74
     0
 77
     1
 78
    12
 79
     3
140
3.5
143
0.03937
147
0.8
171
     3
172
     1
176
     7
177
     7
178
     7
271
     2
272
     2
274
     3
278
    44
340
C6
371
    25
372
    25
  0
DIMSTYLE
105
D4
330
A
100
AcDbSymbolTableRecord
100
AcDbDimStyleTableRecord
  2
STANDARD-TC_020513_DIN$7
 70
     0
 41
2.5
 42
1.0
 43
6.0
 44
2.0
 45
0.00000001
 46
10.0
 73
     0
 74
     0
 77
     1
 78
    12
 79
     3
140
3.5
143
0.03937
147
0.8
171
     3
172
     1
176
     7
177
     7
178
     7
271
     2
272
     2
274
     3
278
    44
340
C6
371
    25
372
    25
  0
DIMSTYLE
105
D5
330
A
100
AcDbSymbolTableRecord
100
AcDbDimStyleTableRecord
  2
STANDARD-TC_020513_DINGroßer Text
 70
     0
 41
5.0
 42
0.0
 43
6.0
 44
3.174999999999999
 45
0.00000001
 46
10.0
 73
     0
 74
     0
 77
     1
140
5.25
143
0.03937
146
0.6666666666666666
147
0.8
171
     3
172
     1
176
     7
177
     7
178
     7
271
     2
272
     2
274
     3
278
    44
340
C9
371
    25
372
    25
  0
DIMSTYLE
105
D6
330
A
100
AcDbSymbolTableRecord
100
AcDbDimStyleTableRecord
  2
STANDARD-TC_020513_DINGroßer Text$7
 70
     0
 41
5.0
 42
0.0
 43
6.0
 44
3.174999999999999
 45
0.00000001
 46
10.0
 73
     0
 74
     0
 77
     1
140
5.25
143
0.03937
146
0.6666666666666666
147
0.8
171
     3
172
     1
176
     7
177
     7
178
     7
271
     2
272
     2
274
     3
278
    44
340
C9
371
    25
372
    25
  0
DIMSTYLE
105
D7
330
A
100
AcDbSymbolTableRecord
100
AcDbDimStyleTableRecord
  2
Teccon Kiel Stil
 70
     0
 41
2.5
 42
0.0
 43
7.0
 44
2.0
 45
0.00000001
 46
10.0
 73
     0
 74
     0
 77
     1
 78
    12
 79
     3
140
3.5
143
0.03937
147
1.0
171
     3
172
     1
176
     7
177
     7
178
     7
179
     1
271
     1
272
     2
274
     3
278
    44
340
CC
371
    25
372
    25
  0
DIMSTYLE
105
D8
330
A
100
AcDbSymbolTableRecord
100
AcDbDimStyleTableRecord
  2
Teccon Kiel Stil$7
 70
     0
 41
2.5
 42
0.0
 43
7.0
 44
2.0
 45
0.00000001
 46
10.0
 73
     0
 74
     0
 77
     1
 78
    12
 79
     3
140
3.5
143
0.03937
147
1.0
171
     3
172
     1
176
     7
177
     7
178
     7
179
     1
271
     1
272
     2
274
     3
278
    44
340
CC
371
    25
372
    25
  0
DIMSTYLE
105
D9
330
A
100
AcDbSymbolTableRecord
100
AcDbDimStyleTableRecord
  2
Teccon Kiel StilGroßer Text
 70
     0
 41
5.0
 42
0.0
 43
7.0
 44
2.0
 45
0.00000001
 46
10.0
 73
     0
 74
     0
 77
     1
 78
    12
 79
     3
140
5.25
143
0.03937
146
0.6666666666666666
147
1.0
171
     3
172
     1
176
     7
177
     7
178
     7
179
     1
271
     1
272
     2
274
     3
278
    44
340
CD
371
    25
372
    25
  0
DIMSTYLE
105
DA
330
A
100
AcDbSymbolTableRecord
100
AcDbDimStyleTableRecord
  2
Teccon Kiel StilGroßer Text$7
 70
     0
 41
5.0
 42
0.0
 43
7.0
 44
2.0
 45
0.00000001
 46
10.0
 73
     0
 74
     0
 77
     1
 78
    12
 79
     3
140
5.25
143
0.03937
146
0.6666666666666666
147
1.0
171
     3
172
     1
176
     7
177
     7
178
     7
179
     1
271
     1
272
     2
274
     3
278
    44
340
CD
371
    25
372
    25
  0
DIMSTYLE
105
DB
330
A
100
AcDbSymbolTableRecord
100
AcDbDimStyleTableRecord
  2
Führungslinie-Ursprungsindikator(ISO)
 70
     0
 41
2.5
340
26
342
DC
  0
DIMSTYLE
105
E3
330
A
100
AcDbSymbolTableRecord
100
AcDbDimStyleTableRecord
  2
Führungslinie-Ursprungsindikator(TC_020513_DIN)
 70
     0
 41
2.5
340
26
342
DC
  0
DIMSTYLE
105
EE
330
A
100
AcDbSymbolTableRecord
100
AcDbDimStyleTableRecord
  2
Führungslinie - Bezugsstelle(ISO)
 70
     0
 41
2.5
340
26
342
DC
  0
DIMSTYLE
105
EF
330
A
100
AcDbSymbolTableRecord
100
AcDbDimStyleTableRecord
  2
Führungslinie - Bezugsstelle(TC_020513_DIN)
 70
     0
 41
2.5
340
26
342
DC
  0
DIMSTYLE
105
F0
330
A
100
AcDbSymbolTableRecord
100
AcDbDimStyleTableRecord
  2
Führungslinie - Punkt(ISO)
 70
     0
 41
2.5
340
26
342
DC
  0
DIMSTYLE
105
F1
330
A
100
AcDbSymbolTableRecord
100
AcDbDimStyleTableRecord
  2
Führungslinie - Punkt(TC_020513_DIN)
 70
     0
 41
2.5
340
26
342
DC
  0
DIMSTYLE
105
F2
330
A
100
AcDbSymbolTableRecord
100
AcDbDimStyleTableRecord
  2
Führungslinie(ISO)
 70
     0
 41
2.5
340
26
342
DC
  0
DIMSTYLE
105
F3
330
A
100
AcDbSymbolTableRecord
100
AcDbDimStyleTableRecord
  2
Führungslinie(TC_020513_DIN)
 70
     0
 41
2.5
340
26
342
DC
  0
ENDTAB
  0
TABLE
  2
BLOCK_RECORD
  5
1
330
0
100
AcDbSymbolTable
 70
    22
  0
BLOCK_RECORD
  5
37
330
1
100
AcDbSymbolTableRecord
100
AcDbBlockTableRecord
  2
*Model_Space
340
3A
  0
BLOCK_RECORD
  5
33
330
1
100
AcDbSymbolTableRecord
100
AcDbBlockTableRecord
  2
*Paper_Space
340
36
  0
BLOCK_RECORD
  5
3B
330
1
100
AcDbSymbolTableRecord
100
AcDbBlockTableRecord
  2
*Paper_Space0
340
3E
  0
BLOCK_RECORD
  5
DC
330
1
100
AcDbSymbolTableRecord
100
AcDbBlockTableRecord
  2
_Closed
340
0
  0
BLOCK_RECORD
  5
E4
330
1
100
AcDbSymbolTableRecord
100
AcDbBlockTableRecord
  2
DatumFilled45
340
0
  0
BLOCK_RECORD
  5
F4
330
1
100
AcDbSymbolTableRecord
100
AcDbBlockTableRecord
  2
DIN 6930 (Toleranzklasse)
340
0
  0
BLOCK_RECORD
  5
105
330
1
100
AcDbSymbolTableRecord
100
AcDbBlockTableRecord
  2
nicht bemaßte Radien
340
0
  0
BLOCK_RECORD
  5
10E
330
1
100
AcDbSymbolTableRecord
100
AcDbBlockTableRecord
  2
DIN ISO 13715 (Werkstückkanten)
340
0
  0
BLOCK_RECORD
  5
132
330
1
100
AcDbSymbolTableRecord
100
AcDbBlockTableRecord
  2
EN 12329 (Chromatierung)
340
0
  0
BLOCK_RECORD
  5
13A
330
1
100
AcDbSymbolTableRecord
100
AcDbBlockTableRecord
  2
ISO 2768 (zul. Abweichung)
340
0
  0
BLOCK_RECORD
  5
143
330
1
100
AcDbSymbolTableRecord
100
AcDbBlockTableRecord
  2
DIN ISO 1302 (Oberflächen)
340
0
  0
BLOCK_RECORD
  5
14B
330
1
100
AcDbSymbolTableRecord
100
AcDbBlockTableRecord
  2
Ränder Ilme Rahmen A4 quer
340
0
102
{BLKREFS
331
155
102
}
  0
BLOCK_RECORD
  5
156
330
1
100
AcDbSymbolTableRecord
100
AcDbBlockTableRecord
  2
Schriftfelder Ilme
340
0
102
{BLKREFS
331
1C9
102
}
  0
BLOCK_RECORD
  5
658
330
1
100
AcDbSymbolTableRecord
100
AcDbBlockTableRecord
  2
*D11
340
0
  0
BLOCK_RECORD
  5
71D
330
1
100
AcDbSymbolTableRecord
100
AcDbBlockTableRecord
  2
*D12
340
0
  0
BLOCK_RECORD
  5
7F3
330
1
100
AcDbSymbolTableRecord
100
AcDbBlockTableRecord
  2
*D13
340
0
  0
BLOCK_RECORD
  5
8B3
330
1
100
AcDbSymbolTableRecord
100
AcDbBlockTableRecord
  2
*D14
340
0
  0
BLOCK_RECORD
  5
973
330
1
100
AcDbSymbolTableRecord
100
AcDbBlockTableRecord
  2
*D15
340
0
  0
BLOCK_RECORD
  5
A2E
330
1
100
AcDbSymbolTableRecord
100
AcDbBlockTableRecord
  2
*D16
340
0
  0
BLOCK_RECORD
  5
AEE
330
1
100
AcDbSymbolTableRecord
100
AcDbBlockTableRecord
  2
*D17
340
0
  0
BLOCK_RECORD
  5
BB3
330
1
100
AcDbSymbolTableRecord
100
AcDbBlockTableRecord
  2
*D18
340
0
  0
BLOCK_RECORD
  5
C78
330
1
100
AcDbSymbolTableRecord
100
AcDbBlockTableRecord
  2
*D19
340
0
  0
BLOCK_RECORD
  5
D38
330
1
100
AcDbSymbolTableRecord
100
AcDbBlockTableRecord
  2
*D20
340
0
  0
BLOCK_RECORD
  5
DFD
330
1
100
AcDbSymbolTableRecord
100
AcDbBlockTableRecord
  2
*D21
340
0
  0
ENDTAB
  0
ENDSEC
  0
SECTION
  2
BLOCKS
  0
BLOCK
  5
38
330
37
100
AcDbEntity
  8
0
100
AcDbBlockBegin
  2
*Model_Space
 70
     0
 10
0.0
 20
0.0
 30
0.0
  3
*Model_Space
  1

  0
ENDBLK
  5
39
330
37
100
AcDbEntity
  8
0
100
AcDbBlockEnd
  0
BLOCK
  5
34
330
33
100
AcDbEntity
 67
     1
  8
0
100
AcDbBlockBegin
  2
*Paper_Space
 70
     0
 10
0.0
 20
0.0
 30
0.0
  3
*Paper_Space
  1

  0
ENDBLK
  5
35
330
33
100
AcDbEntity
 67
     1
  8
0
100
AcDbBlockEnd
  0
BLOCK
  5
3C
330
3B
100
AcDbEntity
 67
     1
  8
0
100
AcDbBlockBegin
  2
*Paper_Space0
 70
     0
 10
0.0
 20
0.0
 30
0.0
  3
*Paper_Space0
  1

  0
ENDBLK
  5
3D
330
3B
100
AcDbEntity
 67
     1
  8
0
100
AcDbBlockEnd
  0
BLOCK
  5
E1
330
DC
100
AcDbEntity
  8
0
100
AcDbBlockBegin
  2
_Closed
 70
     0
 10
0.0
 20
0.0
 30
0.0
  3
_Closed
  1

  0
LINE
  5
DD
330
DC
100
AcDbEntity
  8
0
  6
ByBlock
 62
     0
370
    -2
100
AcDbLine
 10
-1.0
 20
0.1666666666666666
 30
0.0
 11
0.0
 21
0.0
 31
0.0
  0
LINE
  5
DE
330
DC
100
AcDbEntity
  8
0
  6
ByBlock
 62
     0
370
    -2
100
AcDbLine
 10
0.0
 20
0.0
 30
0.0
 11
-1.0
 21
-0.1666666666666666
 31
0.0
  0
LINE
  5
DF
330
DC
100
AcDbEntity
  8
0
  6
ByBlock
 62
     0
370
    -2
100
AcDbLine
 10
-1.0
 20
0.1666666666666666
 30
0.0
 11
-1.0
 21
-0.1666666666666666
 31
0.0
  0
LINE
  5
E0
330
DC
100
AcDbEntity
  8
0
  6
ByBlock
 62
     0
370
    -2
100
AcDbLine
 10
0.0
 20
0.0
 30
0.0
 11
-1.0
 21
0.0
 31
0.0
  0
ENDBLK
  5
E2
330
DC
100
AcDbEntity
  8
0
100
AcDbBlockEnd
  0
BLOCK
  5
E5
330
E4
100
AcDbEntity
  8
0
100
AcDbBlockBegin
  2
DatumFilled45
 70
     0
 10
0.0
 20
0.0
 30
0.0
  3
DatumFilled45
  1

  0
POLYLINE
  5
E7
330
E4
100
AcDbEntity
  8
0
 62
     0
100
AcDb2dPolyline
 66
     1
 10
0.0
 20
0.0
 30
0.0
 70
   128
  0
VERTEX
  5
E8
330
E7
100
AcDbEntity
  8
0
 62
     0
100
AcDbVertex
100
AcDb2dVertex
 10
0.0
 20
1.0
 30
0.0
  0
VERTEX
  5
E9
330
E7
100
AcDbEntity
  8
0
 62
     0
100
AcDbVertex
100
AcDb2dVertex
 10
0.0
 20
-1.0
 30
0.0
  0
VERTEX
  5
EB
330
E7
100
AcDbEntity
  8
0
 62
     0
100
AcDbVertex
100
AcDb2dVertex
 10
-1.0
 20
0.0
 30
0.0
  0
VERTEX
  5
EC
330
E7
100
AcDbEntity
  8
0
 62
     0
100
AcDbVertex
100
AcDb2dVertex
 10
0.0
 20
1.0
 30
0.0
  0
SEQEND
  5
EA
330
E7
100
AcDbEntity
  8
0
 62
     0
  0
SOLID
  5
ED
330
E4
100
AcDbEntity
  8
0
 62
     0
100
AcDbTrace
 10
0.0
 20
1.0
 30
0.0
 11
0.0
 21
-1.0
 31
0.0
 12
-1.0
 22
0.0
 32
0.0
 13
0.0
 23
1.0
 33
0.0
  0
ENDBLK
  5
E6
330
E4
100
AcDbEntity
  8
0
100
AcDbBlockEnd
  0
BLOCK
  5
F5
330
F4
100
AcDbEntity
  8
0
100
AcDbBlockBegin
  2
DIN 6930 (Toleranzklasse)
 70
     2
 10
0.0
 20
0.0
 30
0.0
  3
DIN 6930 (Toleranzklasse)
  1

  0
LINE
  5
F7
330
F4
100
AcDbEntity
  8
Skizziergeometrie(ISO)
100
AcDbLine
 10
-49.99999999999999
 20
24.99999999999996
 30
0.0
 11
0.0
 21
24.99999999999996
 31
0.0
  0
LINE
  5
F8
330
F4
100
AcDbEntity
  8
Skizziergeometrie(ISO)
100
AcDbLine
 10
0.0
 20
24.99999999999996
 30
0.0
 11
0.0
 21
0.0
 31
0.0
  0
LINE
  5
F9
330
F4
100
AcDbEntity
  8
Skizziergeometrie(ISO)
100
AcDbLine
 10
0.0
 20
0.0
 30
0.0
 11
-49.99999999999999
 21
0.0
 31
0.0
  0
LINE
  5
FA
330
F4
100
AcDbEntity
  8
Skizziergeometrie(ISO)
100
AcDbLine
 10
-49.99999999999999
 20
0.0
 30
0.0
 11
-49.99999999999999
 21
24.99999999999996
 31
0.0
  0
MTEXT
  5
FC
102
{ACAD_XDICTIONARY
360
EF1
102
}
330
F4
100
AcDbEntity
  8
Symbole(ISO)
 62
     7
100
AcDbMText
 10
-25.01617139266887
 20
22.49496284479633
 30
0.0
 40
2.5
 41
49.93534911063455
 71
     5
 72
     1
  1
F\U+00FCr spanlose Bearbeitung
  7
TC 2_5 mm-ISOCPEUR
 73
     1
 44
1.0
1001
ACAD
1000
MTEXTBEGIN
1070
    73
1070
     1
1070
    44
1040
1.0
1070
    74
1070
     0
1000
MTEXTEND
  0
MTEXT
  5
FE
330
F4
100
AcDbEntity
  8
Symbole(ISO)
 62
     7
100
AcDbMText
 10
-24.96550299476308
 20
17.97814514565743
 30
0.0
 40
2.5
 41
49.94698265738096
 71
     5
 72
     1
  1
Allgemeintoleranz
  7
TC 2_5 mm-ISOCPEUR
 73
     1
 44
1.0
1001
ACAD
1000
MTEXTBEGIN
1070
    73
1070
     1
1070
    44
1040
1.0
1070
    74
1070
     0
1000
MTEXTEND
  0
MTEXT
  5
100
330
F4
100
AcDbEntity
  8
Symbole(ISO)
 62
     7
100
AcDbMText
 10
-22.00032990803074
 20
12.97814514565747
 30
0.0
 40
3.499999940395355
 41
28.04641142085023
 71
     6
 72
     1
  1
DIN 6930-
  7
TC 3_5 mm-ISOCPEUR
 73
     1
 44
1.0
1001
ACAD
1000
MTEXTBEGIN
1070
    73
1070
     1
1070
    44
1040
1.0
1070
    74
1070
     0
1000
MTEXTEND
  0
MTEXT
  5
101
330
F4
100
AcDbEntity
  8
Symbole(ISO)
 62
     7
100
AcDbMText
 10
-24.98510412015335
 20
5.018941170990345
 30
0.0
 40
2.5
 41
50.05946813167525
 71
     5
 72
     1
  1
(zul. Abweichung der\PWinkelstellung DIN 6935)
  7
TC 2_5 mm-ISOCPEUR
 73
     2
 44
1.068348169326782
1001
ACAD
1000
MTEXTBEGIN
1070
    73
1070
     2
1070
    44
1040
1.068348169326782
1070
    74
1070
     0
1000
MTEXTEND
  0
ATTDEF
  5
102
330
F4
100
AcDbEntity
  8
Symbole(ISO)
 62
     7
100
AcDbText
 10
-21.93383492465724
 20
11.2184168455105
 30
0.0
 40
3.499999940395355
  1
 
 41
0.899999976158142
  7
TC 3_5 mm-ISOCPEUR
 11
-21.93383492465724
 21
12.96841681570818
 31
0.0
100
AcDbAttributeDefinition
  3
Toleranzklasse
  2
Toleranzklasse
 70
     0
 74
     2
  0
ENDBLK
  5
F6
330
F4
100
AcDbEntity
  8
0
100
AcDbBlockEnd
  0
BLOCK
  5
106
330
105
100
AcDbEntity
  8
0
100
AcDbBlockBegin
  2
nicht bemaßte Radien
 70
     2
 10
0.0
 20
0.0
 30
0.0
  3
nicht bemaßte Radien
  1

  0
LINE
  5
108
330
105
100
AcDbEntity
  8
Skizziergeometrie(ISO)
100
AcDbLine
 10
0.0
 20
0.0
 30
0.0
 11
-50.0
 21
0.0
 31
0.0
  0
LINE
  5
109
330
105
100
AcDbEntity
  8
Skizziergeometrie(ISO)
100
AcDbLine
 10
-50.0
 20
0.0
 30
0.0
 11
-50.0
 21
5.0
 31
0.0
  0
LINE
  5
10A
330
105
100
AcDbEntity
  8
Skizziergeometrie(ISO)
100
AcDbLine
 10
-50.0
 20
5.0
 30
0.0
 11
0.0
 21
5.0
 31
0.0
  0
LINE
  5
10B
330
105
100
AcDbEntity
  8
Skizziergeometrie(ISO)
100
AcDbLine
 10
0.0
 20
5.0
 30
0.0
 11
0.0
 21
0.0
 31
0.0
  0
MTEXT
  5
10C
102
{ACAD_XDICTIONARY
360
EF3
102
}
330
105
100
AcDbEntity
  8
Symbole(ISO)
 62
     7
100
AcDbMText
 10
-28.98102517277721
 20
2.530616500783118
 30
0.0
 40
2.5
 41
41.95492584233122
 71
     5
 72
     1
  1
Alle nicht bema\U+00DFten Radien R
  7
TC 2_5 mm-ISOCPEUR
 73
     1
 44
1.0
1001
ACAD
1000
MTEXTBEGIN
1070
    73
1070
     1
1070
    44
1040
1.0
1070
    74
1070
     0
1000
MTEXTEND
  0
ATTDEF
  5
10D
330
105
100
AcDbEntity
  8
Symbole(ISO)
 62
     7
100
AcDbText
 10
-4.624331584212832
 20
1.293984431277515
 30
0.0
 40
2.5
  1
 
 41
0.899999976158142
  7
TC 2_5 mm-ISOCPEUR
 72
     1
 11
-3.949331602094225
 21
2.543984431277515
 31
0.0
100
AcDbAttributeDefinition
  3
Radius
  2
Radius
 70
     0
 74
     2
  0
ENDBLK
  5
107
330
105
100
AcDbEntity
  8
0
100
AcDbBlockEnd
  0
BLOCK
  5
10F
330
10E
100
AcDbEntity
  8
0
100
AcDbBlockBegin
  2
DIN ISO 13715 (Werkstückkanten)
 70
     2
 10
0.0
 20
0.0
 30
0.0
  3
DIN ISO 13715 (Werkstückkanten)
  1

  0
LINE
  5
111
102
{ACAD_REACTORS
330
114
102
}
330
10E
100
AcDbEntity
  8
0
100
AcDbLine
 10
-35.0
 20
20.0
 30
0.0
 11
-32.75944236602587
 21
21.71924034067061
 31
0.0
  0
LINE
  5
112
102
{ACAD_REACTORS
330
114
102
}
330
10E
100
AcDbEntity
  8
0
100
AcDbLine
 10
-33.28075965932943
 20
22.24055763397416
 30
0.0
 11
-35.0
 21
20.0
 31
0.0
  0
LINE
  5
113
102
{ACAD_REACTORS
330
114
102
}
330
10E
100
AcDbEntity
  8
0
100
AcDbLine
 10
-32.75944236602587
 20
21.71924034067061
 30
0.0
 11
-33.28075965932943
 21
22.24055763397416
 31
0.0
  0
HATCH
  5
114
330
10E
100
AcDbEntity
  8
Schraffur
 62
     7
100
AcDbHatch
 10
0.0
 20
0.0
 30
0.0
210
0.0
220
0.0
230
1.0
  2
SOLID
 70
     1
 71
     1
 91
        1
 92
        1
 93
        3
 72
     1
 10
-35.0
 20
20.0
 11
-32.75944236602587
 21
21.71924034067061
 72
     1
 10
-32.75944236602587
 20
21.71924034067061
 11
-33.28075965932943
 21
22.24055763397416
 72
     1
 10
-33.28075965932943
 20
22.24055763397416
 11
-35.0
 21
20.0
 97
        3
330
111
330
113
330
112
 75
     0
 76
     1
 98
        1
 10
0.0
 20
0.0
  0
LINE
  5
115
102
{ACAD_REACTORS
330
118
102
}
330
10E
100
AcDbEntity
  8
0
100
AcDbLine
 10
-20.00000000000003
 20
20.00000000000003
 30
0.0
 11
-17.7594423660259
 21
21.71924034067057
 31
0.0
  0
LINE
  5
116
102
{ACAD_REACTORS
330
118
102
}
330
10E
100
AcDbEntity
  8
0
100
AcDbLine
 10
-18.28075965932939
 20
22.24055763397406
 30
0.0
 11
-20.00000000000003
 21
20.00000000000003
 31
0.0
  0
LINE
  5
117
102
{ACAD_REACTORS
330
118
102
}
330
10E
100
AcDbEntity
  8
0
100
AcDbLine
 10
-17.7594423660259
 20
21.71924034067057
 30
0.0
 11
-18.28075965932939
 21
22.24055763397406
 31
0.0
  0
HATCH
  5
118
330
10E
100
AcDbEntity
  8
Schraffur
 62
     7
100
AcDbHatch
 10
0.0
 20
0.0
 30
0.0
210
0.0
220
0.0
230
1.0
  2
SOLID
 70
     1
 71
     1
 91
        1
 92
        1
 93
        3
 72
     1
 10
-20.00000000000003
 20
20.00000000000003
 11
-17.7594423660259
 21
21.71924034067057
 72
     1
 10
-17.7594423660259
 20
21.71924034067057
 11
-18.28075965932939
 21
22.24055763397406
 72
     1
 10
-18.28075965932939
 20
22.24055763397406
 11
-20.00000000000003
 21
20.00000000000003
 97
        3
330
115
330
117
330
116
 75
     0
 76
     1
 98
        1
 10
0.0
 20
0.0
  0
LINE
  5
119
330
10E
100
AcDbEntity
  8
Skizziergeometrie(ISO)
100
AcDbLine
 10
-39.89999999999998
 20
20.0
 30
0.0
 11
-35.0
 21
20.0
 31
0.0
  0
LINE
  5
11A
330
10E
100
AcDbEntity
  8
Skizziergeometrie(ISO)
100
AcDbLine
 10
-35.0
 20
20.0
 30
0.0
 11
-34.99999999999996
 21
15.09999999999998
 31
0.0
  0
LINE
  5
11B
330
10E
100
AcDbEntity
  8
Skizziergeometrie(ISO)
100
AcDbLine
 10
-20.00000000000003
 20
20.00000000000003
 30
0.0
 11
-15.10000000000005
 21
20.00000000000003
 31
0.0
  0
LINE
  5
11C
330
10E
100
AcDbEntity
  8
Skizziergeometrie(ISO)
100
AcDbLine
 10
-20.00000000000003
 20
20.00000000000003
 30
0.0
 11
-20.00000000000003
 21
24.90000000000002
 31
0.0
  0
LINE
  5
11D
330
10E
100
AcDbEntity
  8
Skizziergeometrie(ISO)
100
AcDbLine
 10
-35.0
 20
20.0
 30
0.0
 11
-31.28768939877062
 21
23.71231060122938
 31
0.0
  0
LINE
  5
11E
330
10E
100
AcDbEntity
  8
Skizziergeometrie(ISO)
100
AcDbLine
 10
-31.28768939877062
 20
23.71231060122938
 30
0.0
 11
-26.3876893987706
 21
23.71231060122938
 31
0.0
  0
LINE
  5
11F
330
10E
100
AcDbEntity
  8
Skizziergeometrie(ISO)
100
AcDbLine
 10
-35.0
 20
20.0
 30
0.0
 11
-33.28075965932943
 21
22.24055763397416
 31
0.0
  0
LINE
  5
120
330
10E
100
AcDbEntity
  8
Skizziergeometrie(ISO)
100
AcDbLine
 10
-33.28075965932943
 20
22.24055763397416
 30
0.0
 11
-32.75944236602587
 21
21.71924034067061
 31
0.0
  0
LINE
  5
121
330
10E
100
AcDbEntity
  8
Skizziergeometrie(ISO)
100
AcDbLine
 10
-32.75944236602587
 20
21.71924034067061
 30
0.0
 11
-35.0
 21
20.0
 31
0.0
  0
LINE
  5
122
330
10E
100
AcDbEntity
  8
Skizziergeometrie(ISO)
100
AcDbLine
 10
-31.28768939877062
 20
23.71231060122938
 30
0.0
 11
-31.28768939877062
 21
28.61231060122936
 31
0.0
  0
LINE
  5
123
330
10E
100
AcDbEntity
  8
Skizziergeometrie(ISO)
100
AcDbLine
 10
-18.02010101267761
 20
21.97989898732235
 30
0.0
 11
-16.28768939877059
 21
23.71231060122938
 31
0.0
  0
LINE
  5
124
330
10E
100
AcDbEntity
  8
Skizziergeometrie(ISO)
100
AcDbLine
 10
-16.28768939877059
 20
23.71231060122938
 30
0.0
 11
-11.3876893987706
 21
23.71231060122938
 31
0.0
  0
LINE
  5
125
330
10E
100
AcDbEntity
  8
Skizziergeometrie(ISO)
100
AcDbLine
 10
-20.00000000000003
 20
20.00000000000003
 30
0.0
 11
-18.28075965932939
 21
22.24055763397406
 31
0.0
  0
LINE
  5
126
330
10E
100
AcDbEntity
  8
Skizziergeometrie(ISO)
100
AcDbLine
 10
-18.28075965932939
 20
22.24055763397406
 30
0.0
 11
-17.7594423660259
 21
21.71924034067057
 31
0.0
  0
LINE
  5
127
330
10E
100
AcDbEntity
  8
Skizziergeometrie(ISO)
100
AcDbLine
 10
-17.7594423660259
 20
21.71924034067057
 30
0.0
 11
-20.00000000000003
 21
20.00000000000003
 31
0.0
  0
LINE
  5
128
330
10E
100
AcDbEntity
  8
Skizziergeometrie(ISO)
100
AcDbLine
 10
-16.28768939877059
 20
23.71231060122938
 30
0.0
 11
-16.28768939877059
 21
28.61231060122936
 31
0.0
  0
LINE
  5
129
330
10E
100
AcDbEntity
  8
Skizziergeometrie(ISO)
100
AcDbLine
 10
-49.99999999999999
 20
35.0
 30
0.0
 11
0.0
 21
35.0
 31
0.0
  0
LINE
  5
12A
330
10E
100
AcDbEntity
  8
Skizziergeometrie(ISO)
100
AcDbLine
 10
0.0
 20
35.0
 30
0.0
 11
0.0
 21
0.0
 31
0.0
  0
LINE
  5
12B
330
10E
100
AcDbEntity
  8
Skizziergeometrie(ISO)
100
AcDbLine
 10
0.0
 20
0.0
 30
0.0
 11
-49.99999999999999
 21
0.0
 31
0.0
  0
LINE
  5
12C
330
10E
100
AcDbEntity
  8
Skizziergeometrie(ISO)
100
AcDbLine
 10
-49.99999999999999
 20
0.0
 30
0.0
 11
-49.99999999999999
 21
35.0
 31
0.0
  0
MTEXT
  5
12D
102
{ACAD_XDICTIONARY
360
EF5
102
}
330
10E
100
AcDbEntity
  8
Symbole(ISO)
 62
     7
100
AcDbMText
 10
-24.97893135154584
 20
10.23779293592927
 30
0.0
 40
3.499999940395355
 41
49.9873458157533
 71
     5
 72
     1
  1
Werkst\U+00FCckkanten\Pnach ISO 13715
  7
TC 3_5 mm-ISOCPEUR
 73
     2
 44
1.068348169326782
1001
ACAD
1000
MTEXTBEGIN
1070
    73
1070
     2
1070
    44
1040
1.068348169326782
1070
    74
1070
     0
1000
MTEXTEND
  0
ATTDEF
  5
12E
330
10E
100
AcDbEntity
  8
Symbole(ISO)
 62
     7
100
AcDbText
 10
-30.16177492853139
 20
24.5808246293851
 30
0.0
 40
2.5
  1
 
 41
0.899999976158142
  7
TC 2_5 mm-ISOCPEUR
 11
-30.16177492853139
 21
25.8308246293851
 31
0.0
100
AcDbAttributeDefinition
  3
AK unten
  2
AK_unten
 70
     0
 74
     2
  0
ATTDEF
  5
12F
330
10E
100
AcDbEntity
  8
Symbole(ISO)
 62
     7
100
AcDbText
 10
-30.17792390794348
 20
27.58528770975683
 30
0.0
 40
2.5
  1
 
 41
0.899999976158142
  7
TC 2_5 mm-ISOCPEUR
 11
-30.17792390794348
 21
28.83528770975683
 31
0.0
100
AcDbAttributeDefinition
  3
AK oben
  2
AK_oben
 70
     0
 74
     2
  0
ATTDEF
  5
130
330
10E
100
AcDbEntity
  8
Symbole(ISO)
 62
     7
100
AcDbText
 10
-15.11922386270676
 20
24.61259748150297
 30
0.0
 40
2.5
  1
 
 41
0.899999976158142
  7
TC 2_5 mm-ISOCPEUR
 11
-15.11922386270676
 21
25.86259748150297
 31
0.0
100
AcDbAttributeDefinition
  3
IK unten
  2
IK_unten
 70
     0
 74
     2
  0
ATTDEF
  5
131
330
10E
100
AcDbEntity
  8
Symbole(ISO)
 62
     7
100
AcDbText
 10
-15.14487582203273
 20
27.61806754523864
 30
0.0
 40
2.5
  1
 
 41
0.899999976158142
  7
TC 2_5 mm-ISOCPEUR
 11
-15.14487582203273
 21
28.86806754523864
 31
0.0
100
AcDbAttributeDefinition
  3
IK oben
  2
IK_oben
 70
     0
 74
     2
  0
ENDBLK
  5
110
330
10E
100
AcDbEntity
  8
0
100
AcDbBlockEnd
  0
BLOCK
  5
133
330
132
100
AcDbEntity
  8
0
100
AcDbBlockBegin
  2
EN 12329 (Chromatierung)
 70
     0
 10
0.0
 20
0.0
 30
0.0
  3
EN 12329 (Chromatierung)
  1

  0
LINE
  5
135
330
132
100
AcDbEntity
  8
Skizziergeometrie(ISO)
100
AcDbLine
 10
0.0
 20
0.0
 30
0.0
 11
-50.0
 21
0.0
 31
0.0
  0
LINE
  5
136
330
132
100
AcDbEntity
  8
Skizziergeometrie(ISO)
100
AcDbLine
 10
-50.0
 20
0.0
 30
0.0
 11
-50.0
 21
15.0
 31
0.0
  0
LINE
  5
137
330
132
100
AcDbEntity
  8
Skizziergeometrie(ISO)
100
AcDbLine
 10
-50.0
 20
15.0
 30
0.0
 11
0.0
 21
15.00000000000003
 31
0.0
  0
LINE
  5
138
330
132
100
AcDbEntity
  8
Skizziergeometrie(ISO)
100
AcDbLine
 10
0.0
 20
15.00000000000003
 30
0.0
 11
0.0
 21
0.0
 31
0.0
  0
MTEXT
  5
139
330
132
100
AcDbEntity
  8
Symbole(ISO)
 62
     7
100
AcDbMText
 10
-24.98833105758937
 20
7.490142772208123
 30
0.0
 40
2.5
 41
49.83545872181219
 71
     5
 72
     1
  1
Verzinkt FE / ZN / C\PEN 12329\P(gelb chromatiert)
  7
TC 2_5 mm-ISOCPEUR
 73
     2
 44
1.068348169326782
1001
ACAD
1000
MTEXTBEGIN
1070
    73
1070
     2
1070
    44
1040
1.068348169326782
1070
    74
1070
     0
1000
MTEXTEND
  0
ENDBLK
  5
134
330
132
100
AcDbEntity
  8
0
100
AcDbBlockEnd
  0
BLOCK
  5
13B
330
13A
100
AcDbEntity
  8
0
100
AcDbBlockBegin
  2
ISO 2768 (zul. Abweichung)
 70
     2
 10
0.0
 20
0.0
 30
0.0
  3
ISO 2768 (zul. Abweichung)
  1

  0
LINE
  5
13D
330
13A
100
AcDbEntity
  8
Skizziergeometrie(ISO)
100
AcDbLine
 10
-26.0
 20
0.0
 30
0.0
 11
0.0
 21
0.0
 31
0.0
  0
LINE
  5
13E
330
13A
100
AcDbEntity
  8
Skizziergeometrie(ISO)
100
AcDbLine
 10
0.0
 20
0.0
 30
0.0
 11
0.0
 21
17.0
 31
0.0
  0
LINE
  5
13F
330
13A
100
AcDbEntity
  8
Skizziergeometrie(ISO)
100
AcDbLine
 10
0.0
 20
17.0
 30
0.0
 11
-26.0
 21
17.0
 31
0.0
  0
LINE
  5
140
330
13A
100
AcDbEntity
  8
Skizziergeometrie(ISO)
100
AcDbLine
 10
-26.0
 20
17.0
 30
0.0
 11
-26.0
 21
0.0
 31
0.0
  0
MTEXT
  5
141
330
13A
100
AcDbEntity
  8
Symbole(ISO)
 62
     7
100
AcDbMText
 10
-7.994454197588593
 20
5.526470854171373
 30
0.0
 40
2.5
 41
17.99309312940538
 71
     6
 72
     1
  1
ISO 2768-
  7
TC 2_5 mm-ISOCPEUR
 73
     1
 44
1.0
1001
ACAD
1000
MTEXTBEGIN
1070
    73
1070
     1
1070
    44
1040
1.0
1070
    74
1070
     0
1000
MTEXTEND
  0
ATTDEF
  5
142
330
13A
100
AcDbEntity
  8
Symbole(ISO)
 62
     7
100
AcDbText
 10
-7.924832568762529
 20
4.240604076340716
 30
0.0
 40
2.5
  1
 
 41
0.899999976158142
  7
TC 2_5 mm-ISOCPEUR
 11
-7.924832568762529
 21
5.490604076340716
 31
0.0
100
AcDbAttributeDefinition
  3
Grad
  2
Grad
 70
     0
 74
     2
  0
ENDBLK
  5
13C
330
13A
100
AcDbEntity
  8
0
100
AcDbBlockEnd
  0
BLOCK
  5
144
330
143
100
AcDbEntity
  8
0
100
AcDbBlockBegin
  2
DIN ISO 1302 (Oberflächen)
 70
     0
 10
0.0
 20
0.0
 30
0.0
  3
DIN ISO 1302 (Oberflächen)
  1

  0
LINE
  5
146
330
143
100
AcDbEntity
  8
Skizziergeometrie(ISO)
100
AcDbLine
 10
-18.19999999999999
 20
0.0
 30
0.0
 11
0.0
 21
0.0
 31
0.0
  0
LINE
  5
147
330
143
100
AcDbEntity
  8
Skizziergeometrie(ISO)
100
AcDbLine
 10
0.0
 20
0.0
 30
0.0
 11
0.0
 21
17.0
 31
0.0
  0
LINE
  5
148
330
143
100
AcDbEntity
  8
Skizziergeometrie(ISO)
100
AcDbLine
 10
0.0
 20
17.0
 30
0.0
 11
-18.2
 21
17.0
 31
0.0
  0
LINE
  5
149
330
143
100
AcDbEntity
  8
Skizziergeometrie(ISO)
100
AcDbLine
 10
-18.2
 20
17.0
 30
0.0
 11
-18.19999999999999
 21
0.0
 31
0.0
  0
MTEXT
  5
14A
330
143
100
AcDbEntity
  8
Symbole(ISO)
 62
     7
100
AcDbMText
 10
-9.137586403397849
 20
5.561325836084813
 30
0.0
 40
2.5
 41
18.21623868792871
 71
     5
 72
     1
  1
DIN ISO 1302
  7
TC 2_5 mm-ISOCPEUR
 73
     1
 44
1.0
1001
ACAD
1000
MTEXTBEGIN
1070
    73
1070
     1
1070
    44
1040
1.0
1070
    74
1070
     0
1000
MTEXTEND
  0
ENDBLK
  5
145
330
143
100
AcDbEntity
  8
0
100
AcDbBlockEnd
  0
BLOCK
  5
14C
330
14B
100
AcDbEntity
  8
0
100
AcDbBlockBegin
  2
Ränder Ilme Rahmen A4 quer
 70
     0
 10
0.0
 20
0.0
 30
0.0
  3
Ränder Ilme Rahmen A4 quer
  1

  0
LINE
  5
14E
330
14B
100
AcDbEntity
  8
Skizziergeometrie(ISO)
100
AcDbLine
 10
9.999999999999982
 20
9.999999999999952
 30
0.0
 11
10.00000000000001
 21
190.0
 31
0.0
  0
LINE
  5
14F
330
14B
100
AcDbEntity
  8
Skizziergeometrie(ISO)
100
AcDbLine
 10
10.00000000000001
 20
190.0
 30
0.0
 11
287.0
 21
190.0
 31
0.0
  0
LINE
  5
150
330
14B
100
AcDbEntity
  8
Skizziergeometrie(ISO)
100
AcDbLine
 10
9.999999999999982
 20
9.999999999999952
 30
0.0
 11
287.0
 21
10.00000000000003
 31
0.0
  0
LINE
  5
151
330
14B
100
AcDbEntity
  8
Skizziergeometrie(ISO)
100
AcDbLine
 10
148.5
 20
210.0
 30
0.0
 11
148.5
 21
196.0
 31
0.0
  0
LINE
  5
152
330
14B
100
AcDbEntity
  8
Skizziergeometrie(ISO)
100
AcDbLine
 10
287.0
 20
190.0
 30
0.0
 11
287.0
 21
10.00000000000003
 31
0.0
  0
MTEXT
  5
153
330
14B
100
AcDbEntity
  8
Symbole(ISO)
 62
     7
100
AcDbMText
 10
148.5
 20
196.0
 30
0.0
 40
3.499999940395355
 41
0.0
 71
     2
 72
     1
  1
\fISOCPEUR|b0|i0;\H3.5000;    Diritti riservati     All rights reseved
  7
TC 2_5 mm
 73
     1
 44
1.0
1001
ACAD
1000
MTEXTBEGIN
1070
    73
1070
     1
1070
    44
1040
1.0
1070
    74
1070
     0
1000
MTEXTEND
  0
ENDBLK
  5
14D
330
14B
100
AcDbEntity
  8
0
100
AcDbBlockEnd
  0
BLOCK
  5
157
330
156
100
AcDbEntity
  8
0
100
AcDbBlockBegin
  2
Schriftfelder Ilme
 70
     2
 10
0.0
 20
0.0
 30
0.0
  3
Schriftfelder Ilme
  1

  0
ARC
  5
159
102
{ACAD_REACTORS
330
15D
102
}
330
156
100
AcDbEntity
  8
0
100
AcDbCircle
 10
184.655189950303
 20
19.15390948356282
 30
10.0
 40
0.3333333333333996
100
AcDbArc
 50
0.0
 51
180.0
  0
LINE
  5
15A
102
{ACAD_REACTORS
330
15D
102
}
330
156
100
AcDbEntity
  8
0
100
AcDbLine
 10
184.3218566169696
 20
15.84737070168959
 30
10.0
 11
184.3218566169696
 21
19.15390948356282
 31
10.0
  0
ARC
  5
15B
102
{ACAD_REACTORS
330
15D
102
}
330
156
100
AcDbEntity
  8
0
100
AcDbCircle
 10
184.655189950303
 20
15.84737070168959
 30
10.0
 40
0.3333333333333997
100
AcDbArc
 50
180.0
 51
0.0
  0
LINE
  5
15C
102
{ACAD_REACTORS
330
15D
102
}
330
156
100
AcDbEntity
  8
0
100
AcDbLine
 10
184.9885232836365
 20
19.15390948356282
 30
10.0
 11
184.9885232836365
 21
15.84737070168959
 31
10.0
  0
HATCH
  5
15D
330
156
100
AcDbEntity
  8
Schraffur
 62
     7
100
AcDbHatch
 10
0.0
 20
0.0
 30
0.0
210
0.0
220
0.0
230
1.0
  2
SOLID
 70
     1
 71
     1
 91
        1
 92
        1
 93
        4
 72
     2
 10
184.655189950303
 20
19.15390948356282
 40
0.3333333333333996
 50
0.0
 51
180.0
 73
     1
 72
     1
 10
184.3218566169696
 20
19.15390948356282
 11
184.3218566169696
 21
15.84737070168959
 72
     2
 10
184.655189950303
 20
15.84737070168959
 40
0.3333333333333997
 50
180.0
 51
360.0
 73
     1
 72
     1
 10
184.9885232836365
 20
15.84737070168959
 11
184.9885232836365
 21
19.15390948356282
 97
        4
330
159
330
15A
330
15B
330
15C
 75
     0
 76
     1
 98
        1
 10
0.0
 20
0.0
  0
LINE
  5
15E
102
{ACAD_REACTORS
330
165
102
}
330
156
100
AcDbEntity
  8
0
100
AcDbLine
 10
188.4894939320861
 20
14.02010125116808
 30
0.0
 11
186.3218576257727
 21
15.27066065865696
 31
0.0
  0
ARC
  5
15F
102
{ACAD_REACTORS
330
165
102
}
330
156
100
AcDbEntity
  8
0
100
AcDbCircle
 10
188.3229197809228
 20
13.73137272248517
 30
0.0
 40
0.333333333333396
100
AcDbArc
 50
240.0183606311473
 51
60.01836063114733
  0
LINE
  5
160
102
{ACAD_REACTORS
330
165
102
}
330
156
100
AcDbEntity
  8
0
100
AcDbLine
 10
185.9887104250881
 20
14.69320296572853
 30
0.0
 11
188.1563456297596
 21
13.44264419380229
 31
0.0
  0
ARC
  5
161
102
{ACAD_REACTORS
330
165
102
}
330
156
100
AcDbEntity
  8
0
100
AcDbCircle
 10
186.3218598278342
 20
15.27066193048824
 30
0.0
 40
0.6666688687282916
100
AcDbArc
 50
180.0
 51
240.0183606311454
  0
LINE
  5
162
102
{ACAD_REACTORS
330
165
102
}
330
156
100
AcDbEntity
  8
0
100
AcDbLine
 10
185.6551909591059
 20
19.94397836659928
 30
0.0
 11
185.6551909591059
 21
15.27066193048824
 31
0.0
  0
ARC
  5
163
102
{ACAD_REACTORS
330
165
102
}
330
156
100
AcDbEntity
  8
0
100
AcDbCircle
 10
185.9885242924393
 20
19.94397836659928
 30
0.0
 40
0.333333333333396
100
AcDbArc
 50
0.0
 51
180.0
  0
LINE
  5
164
102
{ACAD_REACTORS
330
165
102
}
330
156
100
AcDbEntity
  8
0
100
AcDbLine
 10
186.3218576257727
 20
15.27066065865696
 30
0.0
 11
186.3218576257727
 21
19.94397836659928
 31
0.0
  0
HATCH
  5
165
330
156
100
AcDbEntity
  8
Schraffur
 62
     7
100
AcDbHatch
 10
0.0
 20
0.0
 30
0.0
210
0.0
220
0.0
230
1.0
  2
SOLID
 70
     1
 71
     1
 91
        1
 92
        1
 93
        7
 72
     1
 10
188.4894939320861
 20
14.02010125116808
 11
186.3218576257727
 21
15.27066065865696
 72
     1
 10
186.3218576257727
 20
15.27066065865696
 11
186.3218576257727
 21
19.94397836659928
 72
     2
 10
185.9885242924393
 20
19.94397836659928
 40
0.333333333333396
 50
0.0
 51
180.0
 73
     1
 72
     1
 10
185.6551909591059
 20
19.94397836659928
 11
185.6551909591059
 21
15.27066193048824
 72
     2
 10
186.3218598278342
 20
15.27066193048824
 40
0.6666688687282916
 50
180.0
 51
240.0183606311454
 73
     1
 72
     1
 10
185.9887104250881
 20
14.69320296572853
 11
188.1563456297596
 21
13.44264419380229
 72
     2
 10
188.3229197809228
 20
13.73137272248517
 40
0.333333333333396
 50
240.0183606311473
 51
420.0183606311473
 73
     1
 97
        7
330
15E
330
164
330
163
330
162
330
161
330
160
330
15F
 75
     0
 76
     1
 98
        1
 10
0.0
 20
0.0
  0
LINE
  5
166
102
{ACAD_REACTORS
330
173
102
}
330
156
100
AcDbEntity
  8
0
100
AcDbLine
 10
188.655189950303
 20
18.85482345606895
 30
0.0
 11
187.4829623801859
 21
20.88518116554469
 31
0.0
  0
LINE
  5
167
102
{ACAD_REACTORS
330
173
102
}
330
156
100
AcDbEntity
  8
0
100
AcDbLine
 10
189.82741752042
 20
20.88518116554469
 30
0.0
 11
188.655189950303
 21
18.85482345606895
 31
0.0
  0
ARC
  5
168
102
{ACAD_REACTORS
330
173
102
}
330
156
100
AcDbEntity
  8
0
100
AcDbCircle
 10
190.0568849915682
 20
20.75269805930704
 30
0.0
 40
0.2649662124752865
100
AcDbArc
 50
0.0
 51
149.9999999999939
  0
LINE
  5
169
102
{ACAD_REACTORS
330
173
102
}
330
156
100
AcDbEntity
  8
0
100
AcDbLine
 10
190.3218512040435
 20
14.28806850858179
 30
0.0
 11
190.3218512040435
 21
20.75269805930705
 31
0.0
  0
ARC
  5
16A
102
{ACAD_REACTORS
330
173
102
}
330
156
100
AcDbEntity
  8
0
100
AcDbCircle
 10
189.98851787071
 20
14.28806850858179
 30
0.0
 40
0.3333333333334023
100
AcDbArc
 50
180.0
 51
0.0
  0
LINE
  5
16B
102
{ACAD_REACTORS
330
173
102
}
330
156
100
AcDbEntity
  8
0
100
AcDbLine
 10
189.6551845373767
 20
19.25353601487275
 30
0.0
 11
189.6551845373766
 21
14.28806850858179
 31
0.0
  0
LINE
  5
16C
102
{ACAD_REACTORS
330
173
102
}
330
156
100
AcDbEntity
  8
0
100
AcDbLine
 10
188.7995275176003
 20
17.77149458276708
 30
0.0
 11
189.6551845373767
 21
19.25353601487275
 31
0.0
  0
ARC
  5
16D
102
{ACAD_REACTORS
330
173
102
}
330
156
100
AcDbEntity
  8
0
100
AcDbCircle
 10
188.655189950303
 20
17.85482791610036
 30
0.0
 40
0.1666666666665381
100
AcDbArc
 50
209.9999999999992
 51
330.0000000000008
  0
LINE
  5
16E
102
{ACAD_REACTORS
330
173
102
}
330
156
100
AcDbEntity
  8
0
100
AcDbLine
 10
187.6551953632293
 20
19.25353601487277
 30
0.0
 11
188.5108523830057
 21
17.77149458276708
 31
0.0
  0
LINE
  5
16F
102
{ACAD_REACTORS
330
173
102
}
330
156
100
AcDbEntity
  8
0
100
AcDbLine
 10
187.6551953632293
 20
15.84737070168959
 30
0.0
 11
187.6551953632293
 21
19.25353601487277
 31
0.0
  0
ARC
  5
170
102
{ACAD_REACTORS
330
173
102
}
330
156
100
AcDbEntity
  8
0
100
AcDbCircle
 10
187.3218620298959
 20
15.84737070168959
 30
0.0
 40
0.333333333333396
100
AcDbArc
 50
180.0
 51
0.0
  0
LINE
  5
171
102
{ACAD_REACTORS
330
173
102
}
330
156
100
AcDbEntity
  8
0
100
AcDbLine
 10
186.9885286965624
 20
20.75269805930705
 30
0.0
 11
186.9885286965624
 21
15.84737070168959
 31
0.0
  0
ARC
  5
172
102
{ACAD_REACTORS
330
173
102
}
330
156
100
AcDbEntity
  8
0
100
AcDbCircle
 10
187.2534949090378
 20
20.75269805930705
 30
0.0
 40
0.2649662124752854
100
AcDbArc
 50
29.9999999999981
 51
180.0
  0
HATCH
  5
173
330
156
100
AcDbEntity
  8
Schraffur
 62
     7
100
AcDbHatch
 10
0.0
 20
0.0
 30
0.0
210
0.0
220
0.0
230
1.0
  2
SOLID
 70
     1
 71
     1
 91
        1
 92
        1
 93
       13
 72
     1
 10
188.655189950303
 20
18.85482345606895
 11
187.4829623801859
 21
20.88518116554469
 72
     2
 10
187.2534949090378
 20
20.75269805930705
 40
0.2649662124752854
 50
29.9999999999981
 51
180.0
 73
     1
 72
     1
 10
186.9885286965624
 20
20.75269805930705
 11
186.9885286965624
 21
15.84737070168959
 72
     2
 10
187.3218620298959
 20
15.84737070168959
 40
0.333333333333396
 50
180.0
 51
360.0
 73
     1
 72
     1
 10
187.6551953632293
 20
15.84737070168959
 11
187.6551953632293
 21
19.25353601487277
 72
     1
 10
187.6551953632293
 20
19.25353601487277
 11
188.5108523830057
 21
17.77149458276708
 72
     2
 10
188.655189950303
 20
17.85482791610036
 40
0.1666666666665381
 50
209.9999999999992
 51
330.0000000000008
 73
     1
 72
     1
 10
188.7995275176003
 20
17.77149458276708
 11
189.6551845373767
 21
19.25353601487275
 72
     1
 10
189.6551845373767
 20
19.25353601487275
 11
189.6551845373766
 21
14.28806850858179
 72
     2
 10
189.98851787071
 20
14.28806850858179
 40
0.3333333333334023
 50
180.0
 51
360.0
 73
     1
 72
     1
 10
190.3218512040435
 20
14.28806850858179
 11
190.3218512040435
 21
20.75269805930705
 72
     2
 10
190.0568849915682
 20
20.75269805930704
 40
0.2649662124752865
 50
0.0
 51
149.9999999999939
 73
     1
 72
     1
 10
189.82741752042
 20
20.88518116554469
 11
188.655189950303
 21
18.85482345606894
 97
       13
330
166
330
172
330
171
330
170
330
16F
330
16E
330
16D
330
16C
330
16B
330
16A
330
169
330
168
330
167
 75
     0
 76
     1
 98
        1
 10
0.0
 20
0.0
  0
ARC
  5
174
102
{ACAD_REACTORS
330
182
102
}
330
156
100
AcDbEntity
  8
0
100
AcDbCircle
 10
192.6913083387628
 20
15.84737070168959
 30
10.0
 40
0.3333333333333919
100
AcDbArc
 50
299.9816393688529
 51
119.9816393688526
  0
LINE
  5
175
102
{ACAD_REACTORS
330
182
102
}
330
156
100
AcDbEntity
  8
0
100
AcDbLine
 10
191.6551889415001
 20
15.6344385114688
 30
10.0
 11
192.5247341875995
 21
16.13609923037247
 31
10.0
  0
LINE
  5
176
102
{ACAD_REACTORS
330
182
102
}
330
156
100
AcDbEntity
  8
0
100
AcDbLine
 10
191.6551889415001
 20
17.1673067592928
 30
10.0
 11
191.6551889415001
 21
15.6344385114688
 31
10.0
  0
LINE
  5
177
102
{ACAD_REACTORS
330
182
102
}
330
156
100
AcDbEntity
  8
0
100
AcDbLine
 10
192.6913083387628
 20
17.1673067592928
 30
10.0
 11
191.6551889415001
 21
17.1673067592928
 31
10.0
  0
ARC
  5
178
102
{ACAD_REACTORS
330
182
102
}
330
156
100
AcDbEntity
  8
0
100
AcDbCircle
 10
192.6913083387628
 20
17.5006400926262
 30
10.0
 40
0.333333333333396
100
AcDbArc
 50
270.0
 51
90.0
  0
LINE
  5
179
102
{ACAD_REACTORS
330
182
102
}
330
156
100
AcDbEntity
  8
0
100
AcDbLine
 10
191.6551889415001
 20
17.8339734259596
 30
10.0
 11
192.6913083387628
 21
17.8339734259596
 31
10.0
  0
LINE
  5
17A
102
{ACAD_REACTORS
330
182
102
}
330
156
100
AcDbEntity
  8
0
100
AcDbLine
 10
191.6551889415001
 20
19.36684167378358
 30
10.0
 11
191.6551889415001
 21
17.8339734259596
 31
10.0
  0
LINE
  5
17B
102
{ACAD_REACTORS
330
182
102
}
330
156
100
AcDbEntity
  8
0
100
AcDbLine
 10
192.5247341875995
 20
18.86518095487989
 30
10.0
 11
191.6551889415001
 21
19.36684167378358
 31
10.0
  0
ARC
  5
17C
102
{ACAD_REACTORS
330
182
102
}
330
156
100
AcDbEntity
  8
0
100
AcDbCircle
 10
192.6913083387628
 20
19.15390948356282
 30
10.0
 40
0.3333333333333963
100
AcDbArc
 50
240.0183606311407
 51
60.01835942372524
  0
LINE
  5
17D
102
{ACAD_REACTORS
330
182
102
}
330
156
100
AcDbEntity
  8
0
100
AcDbLine
 10
191.4884297593299
 20
20.23270689528218
 30
10.0
 11
192.857882489926
 21
19.44263801224573
 31
10.0
  0
ARC
  5
17E
102
{ACAD_REACTORS
330
182
102
}
330
156
100
AcDbEntity
  8
0
100
AcDbCircle
 10
191.3218556081666
 20
19.94397836659928
 30
10.0
 40
0.333333333333396
100
AcDbArc
 50
60.01836063114071
 51
180.0
  0
LINE
  5
17F
102
{ACAD_REACTORS
330
182
102
}
330
156
100
AcDbEntity
  8
0
100
AcDbLine
 10
190.9885222748332
 20
15.05730181865312
 30
10.0
 11
190.9885222748332
 21
19.94397836659928
 31
10.0
  0
ARC
  5
180
102
{ACAD_REACTORS
330
182
102
}
330
156
100
AcDbEntity
  8
0
100
AcDbCircle
 10
191.3218556081666
 20
15.05730181865312
 30
10.0
 40
0.333333333333396
100
AcDbArc
 50
180.0
 51
299.9816393688593
  0
LINE
  5
181
102
{ACAD_REACTORS
330
182
102
}
330
156
100
AcDbEntity
  8
0
100
AcDbLine
 10
192.857882489926
 20
15.55864217300668
 30
10.0
 11
191.4884297593299
 21
14.7685732899702
 31
10.0
  0
HATCH
  5
182
330
156
100
AcDbEntity
  8
Schraffur
 62
     7
100
AcDbHatch
 10
0.0
 20
0.0
 30
0.0
210
0.0
220
0.0
230
1.0
  2
SOLID
 70
     1
 71
     1
 91
        1
 92
        1
 93
       14
 72
     2
 10
192.6913083387628
 20
15.84737070168959
 40
0.3333333333333919
 50
299.9816393688529
 51
479.9816393688526
 73
     1
 72
     1
 10
192.5247341875995
 20
16.13609923037247
 11
191.6551889415001
 21
15.63443851146881
 72
     1
 10
191.6551889415001
 20
15.6344385114688
 11
191.6551889415001
 21
17.1673067592928
 72
     1
 10
191.6551889415001
 20
17.1673067592928
 11
192.6913083387628
 21
17.1673067592928
 72
     2
 10
192.6913083387628
 20
17.5006400926262
 40
0.333333333333396
 50
270.0
 51
450.0
 73
     1
 72
     1
 10
192.6913083387628
 20
17.8339734259596
 11
191.6551889415001
 21
17.8339734259596
 72
     1
 10
191.6551889415001
 20
17.8339734259596
 11
191.6551889415001
 21
19.36684167378358
 72
     1
 10
191.6551889415001
 20
19.36684167378358
 11
192.5247341875995
 21
18.86518095487989
 72
     2
 10
192.6913083387628
 20
19.15390948356282
 40
0.3333333333333963
 50
240.0183606311407
 51
420.0183594237252
 73
     1
 72
     1
 10
192.857882489926
 20
19.44263801224573
 11
191.4884297593299
 21
20.23270689528218
 72
     2
 10
191.3218556081666
 20
19.94397836659928
 40
0.333333333333396
 50
60.01836063114071
 51
180.0
 73
     1
 72
     1
 10
190.9885222748332
 20
19.94397836659928
 11
190.9885222748332
 21
15.05730181865312
 72
     2
 10
191.3218556081666
 20
15.05730181865312
 40
0.333333333333396
 50
180.0
 51
299.9816393688593
 73
     1
 72
     1
 10
191.4884297593299
 20
14.7685732899702
 11
192.857882489926
 21
15.55864217300668
 97
       14
330
174
330
175
330
176
330
177
330
178
330
179
330
17A
330
17B
330
17C
330
17D
330
17E
330
17F
330
180
330
181
 75
     0
 76
     1
 98
        1
 10
0.0
 20
0.0
  0
LINE
  5
183
330
156
100
AcDbEntity
  8
Skizziergeometrie(ISO)
100
AcDbLine
 10
19.98018995030303
 20
45.0006400926262
 30
0.0
 11
199.980189950303
 21
45.0006400926262
 31
0.0
  0
LINE
  5
184
330
156
100
AcDbEntity
  8
Skizziergeometrie(ISO)
100
AcDbLine
 10
19.98018995030303
 20
40.0006400926262
 30
0.0
 11
199.980189950303
 21
40.0006400926262
 31
0.0
  0
LINE
  5
185
330
156
100
AcDbEntity
  8
Skizziergeometrie(ISO)
100
AcDbLine
 10
19.98018995030303
 20
35.00064009262621
 30
0.0
 11
199.980189950303
 21
35.00064009262621
 31
0.0
  0
LINE
  5
186
330
156
100
AcDbEntity
  8
Skizziergeometrie(ISO)
100
AcDbLine
 10
19.98018995030303
 20
30.00064009262621
 30
0.0
 11
199.980189950303
 21
30.00064009262621
 31
0.0
  0
LINE
  5
187
330
156
100
AcDbEntity
  8
Skizziergeometrie(ISO)
100
AcDbLine
 10
19.98018995030303
 20
25.00064009262621
 30
0.0
 11
199.980189950303
 21
25.00064009262621
 31
0.0
  0
LINE
  5
188
330
156
100
AcDbEntity
  8
Skizziergeometrie(ISO)
100
AcDbLine
 10
19.98018995030303
 20
17.5006400926262
 30
0.0
 11
49.98018995030306
 21
17.5006400926262
 31
0.0
  0
LINE
  5
189
330
156
100
AcDbEntity
  8
Skizziergeometrie(ISO)
100
AcDbLine
 10
26.98018995030303
 20
45.0006400926262
 30
0.0
 11
26.98018995030303
 21
25.00064009262621
 31
0.0
  0
LINE
  5
18A
330
156
100
AcDbEntity
  8
Skizziergeometrie(ISO)
100
AcDbLine
 10
44.98018995030303
 20
45.0006400926262
 30
0.0
 11
44.98018995030303
 21
25.00064009262621
 31
0.0
  0
LINE
  5
18B
330
156
100
AcDbEntity
  8
Skizziergeometrie(ISO)
100
AcDbLine
 10
49.98018995030306
 20
10.0006400926262
 30
0.0
 11
49.98018995030306
 21
25.00064009262621
 31
0.0
  0
LINE
  5
18C
330
156
100
AcDbEntity
  8
Skizziergeometrie(ISO)
100
AcDbLine
 10
159.980189950303
 20
25.00064009262621
 30
0.0
 11
159.980189950303
 21
10.0006400926262
 31
0.0
  0
LINE
  5
18D
330
156
100
AcDbEntity
  8
Skizziergeometrie(ISO)
100
AcDbLine
 10
177.3301899503031
 20
25.0006400926262
 30
0.0
 11
177.3301899503031
 21
10.0006400926262
 31
0.0
  0
LINE
  5
18E
330
156
100
AcDbEntity
  8
Skizziergeometrie(ISO)
100
AcDbLine
 10
190.9885222748332
 20
15.05730181865312
 30
0.0
 11
190.9885222748332
 21
19.94397836659928
 31
0.0
  0
LINE
  5
18F
330
156
100
AcDbEntity
  8
Skizziergeometrie(ISO)
100
AcDbLine
 10
192.857882489926
 20
15.55864217300668
 30
0.0
 11
191.4884297593299
 21
14.7685732899702
 31
0.0
  0
LINE
  5
190
330
156
100
AcDbEntity
  8
Skizziergeometrie(ISO)
100
AcDbLine
 10
191.6551889415001
 20
15.6344385114688
 30
0.0
 11
192.5247341875995
 21
16.13609923037247
 31
0.0
  0
LINE
  5
191
330
156
100
AcDbEntity
  8
Skizziergeometrie(ISO)
100
AcDbLine
 10
191.6551889415001
 20
17.1673067592928
 30
0.0
 11
191.6551889415001
 21
15.6344385114688
 31
0.0
  0
LINE
  5
192
330
156
100
AcDbEntity
  8
Skizziergeometrie(ISO)
100
AcDbLine
 10
192.6913083387628
 20
17.1673067592928
 30
0.0
 11
191.6551889415001
 21
17.1673067592928
 31
0.0
  0
LINE
  5
193
330
156
100
AcDbEntity
  8
Skizziergeometrie(ISO)
100
AcDbLine
 10
191.6551889415001
 20
17.8339734259596
 30
0.0
 11
192.6913083387628
 21
17.8339734259596
 31
0.0
  0
LINE
  5
194
330
156
100
AcDbEntity
  8
Skizziergeometrie(ISO)
100
AcDbLine
 10
191.6551889415001
 20
19.36684167378358
 30
0.0
 11
191.6551889415001
 21
17.8339734259596
 31
0.0
  0
LINE
  5
195
330
156
100
AcDbEntity
  8
Skizziergeometrie(ISO)
100
AcDbLine
 10
192.5247341875995
 20
18.86518095487989
 30
0.0
 11
191.6551889415001
 21
19.36684167378358
 31
0.0
  0
LINE
  5
196
330
156
100
AcDbEntity
  8
Skizziergeometrie(ISO)
100
AcDbLine
 10
191.4884297593299
 20
20.23270689528218
 30
0.0
 11
192.857882489926
 21
19.44263801224573
 31
0.0
  0
LINE
  5
197
330
156
100
AcDbEntity
  8
Skizziergeometrie(ISO)
100
AcDbLine
 10
184.3218566169696
 20
15.84737070168959
 30
0.0
 11
184.3218566169696
 21
19.15390948356282
 31
0.0
  0
LINE
  5
198
330
156
100
AcDbEntity
  8
Skizziergeometrie(ISO)
100
AcDbLine
 10
184.9885232836365
 20
19.15390948356282
 30
0.0
 11
184.9885232836365
 21
15.84737070168959
 31
0.0
  0
LINE
  5
199
330
156
100
AcDbEntity
  8
Skizziergeometrie(ISO)
100
AcDbLine
 10
188.1563456297596
 20
13.44264419380229
 30
0.0
 11
185.9887104250881
 21
14.69320296572853
 31
0.0
  0
LINE
  5
19A
330
156
100
AcDbEntity
  8
Skizziergeometrie(ISO)
100
AcDbLine
 10
186.3218576257727
 20
15.27066065865696
 30
0.0
 11
188.4894939320861
 21
14.02010125116808
 31
0.0
  0
LINE
  5
19B
330
156
100
AcDbEntity
  8
Skizziergeometrie(ISO)
100
AcDbLine
 10
186.3218576257727
 20
19.94397836659928
 30
0.0
 11
186.3218576257727
 21
15.27066065865696
 31
0.0
  0
LINE
  5
19C
330
156
100
AcDbEntity
  8
Skizziergeometrie(ISO)
100
AcDbLine
 10
185.6551909591059
 20
15.27066193048824
 30
0.0
 11
185.6551909591059
 21
19.94397836659928
 31
0.0
  0
LINE
  5
19D
330
156
100
AcDbEntity
  8
Skizziergeometrie(ISO)
100
AcDbLine
 10
189.82741752042
 20
20.88518116554469
 30
0.0
 11
188.655189950303
 21
18.85482345606895
 31
0.0
  0
LINE
  5
19E
330
156
100
AcDbEntity
  8
Skizziergeometrie(ISO)
100
AcDbLine
 10
190.3218512040435
 20
14.28806850858179
 30
0.0
 11
190.3218512040435
 21
20.75269805930705
 31
0.0
  0
LINE
  5
19F
330
156
100
AcDbEntity
  8
Skizziergeometrie(ISO)
100
AcDbLine
 10
187.4829623801859
 20
20.88518116554469
 30
0.0
 11
188.655189950303
 21
18.85482345606895
 31
0.0
  0
LINE
  5
1A0
330
156
100
AcDbEntity
  8
Skizziergeometrie(ISO)
100
AcDbLine
 10
186.9885286965624
 20
15.84737070168959
 30
0.0
 11
186.9885286965624
 21
20.75269805930705
 31
0.0
  0
LINE
  5
1A1
330
156
100
AcDbEntity
  8
Skizziergeometrie(ISO)
100
AcDbLine
 10
188.655189950303
 20
12.50064009262539
 30
0.0
 11
180.2387546751623
 21
17.35627582828491
 31
0.0
  0
LINE
  5
1A2
330
156
100
AcDbEntity
  8
Skizziergeometrie(ISO)
100
AcDbLine
 10
197.0716252254436
 20
17.35627582828489
 30
0.0
 11
188.655189950303
 21
12.50064009262539
 31
0.0
  0
LINE
  5
1A3
330
156
100
AcDbEntity
  8
Skizziergeometrie(ISO)
100
AcDbLine
 10
188.655189950303
 20
22.50064009262702
 30
0.0
 11
197.0716252254436
 21
17.6450043569675
 31
0.0
  0
LINE
  5
1A4
330
156
100
AcDbEntity
  8
Skizziergeometrie(ISO)
100
AcDbLine
 10
180.2387546751623
 20
17.6450043569675
 30
0.0
 11
188.655189950303
 21
22.50064009262702
 31
0.0
  0
LINE
  5
1A5
330
156
100
AcDbEntity
  8
Skizziergeometrie(ISO)
100
AcDbLine
 10
187.6551953632293
 20
19.25353601487277
 30
0.0
 11
187.6551953632293
 21
15.84737070168959
 31
0.0
  0
LINE
  5
1A6
330
156
100
AcDbEntity
  8
Skizziergeometrie(ISO)
100
AcDbLine
 10
188.5108523830057
 20
17.77149458276708
 30
0.0
 11
187.6551953632293
 21
19.25353601487277
 31
0.0
  0
LINE
  5
1A7
330
156
100
AcDbEntity
  8
Skizziergeometrie(ISO)
100
AcDbLine
 10
189.6551845373767
 20
19.25353601487275
 30
0.0
 11
188.7995275176003
 21
17.77149458276708
 31
0.0
  0
LINE
  5
1A8
330
156
100
AcDbEntity
  8
Skizziergeometrie(ISO)
100
AcDbLine
 10
189.6551845373766
 20
14.28806850858179
 30
0.0
 11
189.6551845373767
 21
19.25353601487275
 31
0.0
  0
ARC
  5
1A9
330
156
100
AcDbEntity
  8
Skizziergeometrie(ISO)
100
AcDbCircle
 10
192.6913083387628
 20
15.84737070168959
 30
0.0
 40
0.3333333333333919
100
AcDbArc
 50
299.9816393688527
 51
119.98163936886
  0
ARC
  5
1AA
330
156
100
AcDbEntity
  8
Skizziergeometrie(ISO)
100
AcDbCircle
 10
192.6913083387628
 20
17.5006400926262
 30
0.0
 40
0.333333333333396
100
AcDbArc
 50
270.0
 51
90.0
  0
ARC
  5
1AB
330
156
100
AcDbEntity
  8
Skizziergeometrie(ISO)
100
AcDbCircle
 10
192.6913083387628
 20
19.15390948356282
 30
0.0
 40
0.3333333333333963
100
AcDbArc
 50
240.0183606311413
 51
60.01836063114108
  0
ARC
  5
1AC
330
156
100
AcDbEntity
  8
Skizziergeometrie(ISO)
100
AcDbCircle
 10
184.655189950303
 20
15.84737070168959
 30
0.0
 40
0.3333333333333997
100
AcDbArc
 50
180.0
 51
0.0
  0
ARC
  5
1AD
330
156
100
AcDbEntity
  8
Skizziergeometrie(ISO)
100
AcDbCircle
 10
184.655189950303
 20
19.15390948356282
 30
0.0
 40
0.3333333333333996
100
AcDbArc
 50
0.0
 51
180.0
  0
ARC
  5
1AE
330
156
100
AcDbEntity
  8
Skizziergeometrie(ISO)
100
AcDbCircle
 10
188.3229197809228
 20
13.73137272248517
 30
0.0
 40
0.333333333333396
100
AcDbArc
 50
240.0183606311468
 51
60.01836063114108
  0
ARC
  5
1AF
330
156
100
AcDbEntity
  8
Skizziergeometrie(ISO)
100
AcDbCircle
 10
185.9885242924393
 20
19.94397836659928
 30
0.0
 40
0.333333333333396
100
AcDbArc
 50
0.0
 51
180.0
  0
ARC
  5
1B0
330
156
100
AcDbEntity
  8
Skizziergeometrie(ISO)
100
AcDbCircle
 10
190.0568849915682
 20
20.75269805930704
 30
0.0
 40
0.2649662124752865
100
AcDbArc
 50
0.0
 51
149.9999999999956
  0
ARC
  5
1B1
330
156
100
AcDbEntity
  8
Skizziergeometrie(ISO)
100
AcDbCircle
 10
189.98851787071
 20
14.28806850858179
 30
0.0
 40
0.3333333333334023
100
AcDbArc
 50
180.0
 51
0.0
  0
ARC
  5
1B2
330
156
100
AcDbEntity
  8
Skizziergeometrie(ISO)
100
AcDbCircle
 10
187.3218620298959
 20
15.84737070168959
 30
0.0
 40
0.333333333333396
100
AcDbArc
 50
180.0
 51
0.0
  0
ARC
  5
1B3
330
156
100
AcDbEntity
  8
Skizziergeometrie(ISO)
100
AcDbCircle
 10
187.2534949090378
 20
20.75269805930705
 30
0.0
 40
0.2649662124752854
100
AcDbArc
 50
29.99999999999976
 51
180.0
  0
ARC
  5
1B4
330
156
100
AcDbEntity
  8
Skizziergeometrie(ISO)
100
AcDbCircle
 10
191.3218556081666
 20
15.05730181865312
 30
0.0
 40
0.333333333333396
100
AcDbArc
 50
180.0
 51
299.9816393688587
  0
ARC
  5
1B5
330
156
100
AcDbEntity
  8
Skizziergeometrie(ISO)
100
AcDbCircle
 10
191.3218556081666
 20
19.94397836659928
 30
0.0
 40
0.333333333333396
100
AcDbArc
 50
60.01836063114071
 51
180.0
  0
ARC
  5
1B6
330
156
100
AcDbEntity
  8
Skizziergeometrie(ISO)
100
AcDbCircle
 10
196.9883381498621
 20
17.5006400926262
 30
0.0
 40
0.1666666666665381
100
AcDbArc
 50
299.9816393688627
 51
60.01836063115012
  0
ARC
  5
1B7
330
156
100
AcDbEntity
  8
Skizziergeometrie(ISO)
100
AcDbCircle
 10
180.3220417507439
 20
17.5006400926262
 30
0.0
 40
0.1666666666665381
100
AcDbArc
 50
119.9816393688498
 51
240.0183606311497
  0
ARC
  5
1B8
330
156
100
AcDbEntity
  8
Skizziergeometrie(ISO)
100
AcDbCircle
 10
186.3218598278342
 20
15.27066193048824
 30
0.0
 40
0.6666688687282916
100
AcDbArc
 50
180.0
 51
240.0183606311453
  0
ARC
  5
1B9
330
156
100
AcDbEntity
  8
Skizziergeometrie(ISO)
100
AcDbCircle
 10
188.655189950303
 20
17.85482791610036
 30
0.0
 40
0.1666666666665381
100
AcDbArc
 50
209.9999999999999
 51
330.0000000000001
  0
LINE
  5
1BA
330
156
100
AcDbEntity
  8
Skizzierlinie(TC_020513_DIN)
100
AcDbLine
 10
20.98018995030303
 20
25.00064009262621
 30
0.0
 11
20.98018995030303
 21
17.5006400926262
 31
0.0
  0
LINE
  5
1BB
330
156
100
AcDbEntity
  8
Skizzierlinie(TC_020513_DIN)
100
AcDbLine
 10
20.98018995030303
 20
17.5006400926262
 30
0.0
 11
20.980189950303
 21
10.0006400926262
 31
0.0
  0
LINE
  5
1BC
330
156
100
AcDbEntity
  8
Skizzierlinie(TC_020513_DIN)
100
AcDbLine
 10
49.98018995030306
 20
25.00064009262621
 30
0.0
 11
29.98018995030301
 21
17.5006400926262
 31
0.0
  0
LINE
  5
1BD
330
156
100
AcDbEntity
  8
Skizzierlinie(TC_020513_DIN)
100
AcDbLine
 10
177.3301899503031
 20
25.0006400926262
 30
0.0
 11
159.980189950303
 21
20.0006400926262
 31
0.0
  0
LINE
  5
1BE
330
156
100
AcDbEntity
  8
Skizzierlinie(TC_020513_DIN)
100
AcDbLine
 10
159.980189950303
 20
20.0006400926262
 30
0.0
 11
177.3301899503031
 21
10.0006400926262
 31
0.0
  0
LINE
  5
1BF
330
156
100
AcDbEntity
  8
Skizziergeometrie(ISO)
100
AcDbLine
 10
19.98018995030303
 20
45.0006400926262
 30
0.0
 11
19.98018995030303
 21
10.0006400926262
 31
0.0
  0
LINE
  5
1C0
330
156
100
AcDbEntity
  8
Skizzierlinie(TC_020513_DIN)
100
AcDbLine
 10
50.98018995030301
 20
25.00064009262621
 30
0.0
 11
50.98018995030301
 21
17.5006400926262
 31
0.0
  0
LINE
  5
1C1
330
156
100
AcDbEntity
  8
Skizzierlinie(TC_020513_DIN)
100
AcDbLine
 10
50.98018995030301
 20
17.5006400926262
 30
0.0
 11
50.98018995030301
 21
10.0006400926262
 31
0.0
  0
MTEXT
  5
1C2
330
156
100
AcDbEntity
  8
Symbole(ISO)
 62
     7
100
AcDbMText
 10
20.98018995030303
 20
21.2506400926262
 30
0.0
 40
2.5
 41
8.997516465920178
 71
     4
 72
     1
  1
 Date
  7
TC 2_5 mm
 73
     1
 44
1.0
1001
ACAD
1000
MTEXTBEGIN
1070
    73
1070
     1
1070
    44
1040
1.0
1070
    74
1070
     0
1000
MTEXTEND
  0
MTEXT
  5
1C3
330
156
100
AcDbEntity
  8
Symbole(ISO)
 62
     7
100
AcDbMText
 10
20.980189950303
 20
13.7506400926262
 30
0.0
 40
2.5
 41
8.970966064125889
 71
     4
 72
     1
  1
 Sign.
  7
TC 2_5 mm
 73
     1
 44
1.0
1001
ACAD
1000
MTEXTBEGIN
1070
    73
1070
     1
1070
    44
1040
1.0
1070
    74
1070
     0
1000
MTEXTEND
  0
MTEXT
  5
1C4
330
156
100
AcDbEntity
  8
Symbole(ISO)
 62
     7
100
AcDbMText
 10
168.655189950303
 20
22.5006400926262
 30
0.0
 40
2.5
 41
17.34061856478945
 71
     5
 72
     1
  1
Scale
  7
TC 2_5 mm
 73
     1
 44
1.0
1001
ACAD
1000
MTEXTBEGIN
1070
    73
1070
     1
1070
    44
1040
1.0
1070
    74
1070
     0
1000
MTEXTEND
  0
MTEXT
  5
1C5
330
156
100
AcDbEntity
  8
Symbole(ISO)
 62
     7
100
AcDbMText
 10
39.98018995030301
 20
21.2506400926262
 30
0.0
 40
3.499999940395355
 41
20.95325017112982
 71
     5
 72
     1
  1
14.12.2006
  7
TC 3_5 mm
 73
     1
 44
1.0
1001
ACAD
1000
MTEXTBEGIN
1070
    73
1070
     1
1070
    44
1040
1.0
1070
    74
1070
     0
1000
MTEXTEND
  0
ATTDEF
  5
1C6
330
156
100
AcDbEntity
  8
Symbole(ISO)
 62
     7
100
AcDbText
 10
50.98018995030301
 20
11.75064006282388
 30
0.0
 40
4.000000059604644
  1
surface mounting h. 1 lev. 2xPG16
 41
1.199999928474426
  7
Kopie von TC 5 mm
 11
50.98018995030301
 21
13.7506400926262
 31
0.0
100
AcDbAttributeDefinition
  3
BEZEICHNUNG
  2
BEZEICHNUNG
 70
     0
 74
     2
  0
ATTDEF
  5
1C7
330
156
100
AcDbEntity
  8
Symbole(ISO)
 62
     7
100
AcDbText
 10
164.2856470919772
 20
12.5006400926262
 30
0.0
 40
5.0
  1
1:1
 41
0.899999976158142
  7
TC 5 mm
 72
     1
 11
168.655189950303
 21
15.0006400926262
 31
0.0
100
AcDbAttributeDefinition
  3
FirstViewScale
  2
FirstViewScale
 70
     0
 74
     2
  0
ATTDEF
  5
1C8
330
156
100
AcDbEntity
  8
Symbole(ISO)
 62
     7
100
AcDbText
 10
50.98018995030301
 20
19.25064006282388
 30
0.0
 40
4.000000059604644
  1
CVP 10 L2
 41
1.199999928474426
  7
Kopie von TC 5 mm
 11
50.98018995030301
 21
21.2506400926262
 31
0.0
100
AcDbAttributeDefinition
  3
BAUTEILNUMMER
  2
BAUTEILNUMMER
 70
     0
 74
     2
  0
ENDBLK
  5
158
330
156
100
AcDbEntity
  8
0
100
AcDbBlockEnd
  0
BLOCK
  5
663
330
658
100
AcDbEntity
  8
0
100
AcDbBlockBegin
  2
*D11
 70
     1
 10
0.0
 20
0.0
 30
0.0
  3
*D11
  1

  0
LINE
  5
713
330
658
100
AcDbEntity
  8
Bemaßungen(TC_020513_DIN)
  6
Continuous
 62
     7
370
    25
100
AcDbLine
 10
50.07940288575052
 20
111.0885389042295
 30
0.0
 11
39.07940288575053
 21
111.0885389042295
 31
0.0
  0
LINE
  5
714
330
658
100
AcDbEntity
  8
Bemaßungen(TC_020513_DIN)
  6
Continuous
 62
     7
370
    25
100
AcDbLine
 10
50.07940288575053
 20
87.60453890422951
 30
0.0
 11
39.07940288575053
 21
87.60453890422951
 31
0.0
  0
LINE
  5
715
330
658
100
AcDbEntity
  8
Bemaßungen(TC_020513_DIN)
  6
Continuous
 62
     7
370
    25
100
AcDbLine
 10
41.07940288575053
 20
108.5885389042295
 30
0.0
 11
41.07940288575053
 21
90.10453890422951
 31
0.0
  0
SOLID
  5
716
330
658
100
AcDbEntity
  8
Bemaßungen(TC_020513_DIN)
  6
Continuous
 62
     7
100
AcDbTrace
 10
40.66273621908386
 20
108.5885389042295
 30
0.0
 11
41.49606955241719
 21
108.5885389042295
 31
0.0
 12
41.07940288575053
 22
111.0885389042295
 32
0.0
 13
41.07940288575053
 23
111.0885389042295
 33
0.0
  0
SOLID
  5
717
330
658
100
AcDbEntity
  8
Bemaßungen(TC_020513_DIN)
  6
Continuous
 62
     7
100
AcDbTrace
 10
40.66273621908386
 20
90.10453890422951
 30
0.0
 11
41.49606955241719
 21
90.10453890422951
 31
0.0
 12
41.07940288575053
 22
87.60453890422951
 32
0.0
 13
41.07940288575053
 23
87.60453890422951
 33
0.0
  0
MTEXT
  5
718
330
658
100
AcDbEntity
  8
Bemaßungen(TC_020513_DIN)
  6
Continuous
 62
     7
370
    25
100
AcDbMText
 10
36.66003044373141
 20
92.71659347448874
 30
0.0
 40
3.5
 41
0.0
 71
     1
 72
     1
  1
\A1; PG16
  7
Aktuell-BSI
 11
0.0000000000000001
 21
1.0
 31
0.0
 73
     1
 44
1.0
1001
ACAD
1000
MTEXTBEGIN
1070
    73
1070
     1
1070
    44
1040
1.0
1070
    74
1070
     0
1000
MTEXTEND
  0
POINT
  5
719
330
658
100
AcDbEntity
  8
Defpoints
  6
Continuous
 62
     0
100
AcDbPoint
 10
51.07940288575052
 20
111.0885389042295
 30
0.0
  0
POINT
  5
71A
330
658
100
AcDbEntity
  8
Defpoints
  6
Continuous
 62
     0
100
AcDbPoint
 10
51.07940288575052
 20
87.60453890422951
 30
0.0
  0
POINT
  5
71B
330
658
100
AcDbEntity
  8
Defpoints
  6
Continuous
 62
     0
100
AcDbPoint
 10
41.07940288575053
 20
87.60453890422951
 30
0.0
  0
ENDBLK
  5
664
330
658
100
AcDbEntity
  8
0
100
AcDbBlockEnd
  0
BLOCK
  5
728
330
71D
100
AcDbEntity
  8
0
100
AcDbBlockBegin
  2
*D12
 70
     1
 10
0.0
 20
0.0
 30
0.0
  3
*D12
  1

  0
LINE
  5
7D8
330
71D
100
AcDbEntity
  8
Bemaßungen(TC_020513_DIN)
  6
Continuous
 62
     7
370
    25
100
AcDbLine
 10
145.5794028857505
 20
111.0885389042295
 30
0.0
 11
157.7437396303697
 21
111.0885389042295
 31
0.0
  0
LINE
  5
7D9
330
71D
100
AcDbEntity
  8
Bemaßungen(TC_020513_DIN)
  6
Continuous
 62
     7
370
    25
100
AcDbLine
 10
145.5794028857505
 20
87.60453890422953
 30
0.0
 11
157.7437396303697
 21
87.60453890422953
 31
0.0
  0
LINE
  5
7DA
330
71D
100
AcDbEntity
  8
Bemaßungen(TC_020513_DIN)
  6
Continuous
 62
     7
370
    25
100
AcDbLine
 10
155.7437396303697
 20
108.5885389042295
 30
0.0
 11
155.7437396303697
 21
90.10453890422953
 31
0.0
  0
SOLID
  5
7DB
330
71D
100
AcDbEntity
  8
Bemaßungen(TC_020513_DIN)
  6
Continuous
 62
     7
100
AcDbTrace
 10
155.327072963703
 20
108.5885389042295
 30
0.0
 11
156.1604062970364
 21
108.5885389042295
 31
0.0
 12
155.7437396303697
 22
111.0885389042295
 32
0.0
 13
155.7437396303697
 23
111.0885389042295
 33
0.0
  0
SOLID
  5
7DC
330
71D
100
AcDbEntity
  8
Bemaßungen(TC_020513_DIN)
  6
Continuous
 62
     7
100
AcDbTrace
 10
155.327072963703
 20
90.10453890422953
 30
0.0
 11
156.1604062970364
 21
90.10453890422953
 31
0.0
 12
155.7437396303697
 22
87.60453890422953
 32
0.0
 13
155.7437396303697
 23
87.60453890422953
 33
0.0
  0
MTEXT
  5
7DD
330
71D
100
AcDbEntity
  8
Bemaßungen(TC_020513_DIN)
  6
Continuous
 62
     7
370
    25
100
AcDbMText
 10
151.3243671883506
 20
92.71659347448874
 30
0.0
 40
3.5
 41
0.0
 71
     1
 72
     1
  1
\A1; PG16
  7
Aktuell-BSI
 11
0.0000000000000001
 21
1.0
 31
0.0
 73
     1
 44
1.0
1001
ACAD
1000
MTEXTBEGIN
1070
    73
1070
     1
1070
    44
1040
1.0
1070
    74
1070
     0
1000
MTEXTEND
  0
POINT
  5
7DE
330
71D
100
AcDbEntity
  8
Defpoints
  6
Continuous
 62
     0
100
AcDbPoint
 10
144.5794028857505
 20
111.0885389042295
 30
0.0
  0
POINT
  5
7DF
330
71D
100
AcDbEntity
  8
Defpoints
  6
Continuous
 62
     0
100
AcDbPoint
 10
144.5794028857505
 20
87.60453890422953
 30
0.0
  0
POINT
  5
7E0
330
71D
100
AcDbEntity
  8
Defpoints
  6
Continuous
 62
     0
100
AcDbPoint
 10
155.7437396303697
 20
87.60453890422953
 30
0.0
  0
ENDBLK
  5
729
330
71D
100
AcDbEntity
  8
0
100
AcDbBlockEnd
  0
BLOCK
  5
7FE
330
7F3
100
AcDbEntity
  8
0
100
AcDbBlockBegin
  2
*D13
 70
     1
 10
0.0
 20
0.0
 30
0.0
  3
*D13
  1

  0
LINE
  5
8A9
330
7F3
100
AcDbEntity
  8
Bemaßungen(TC_020513_DIN)
  6
Continuous
 62
     7
370
    25
100
AcDbLine
 10
261.871897995414
 20
122.7665389042295
 30
0.0
 11
261.871897995414
 21
169.7665389042295
 31
0.0
  0
LINE
  5
8AA
330
7F3
100
AcDbEntity
  8
Bemaßungen(TC_020513_DIN)
  6
Continuous
 62
     7
370
    25
100
AcDbLine
 10
189.9379480236911
 20
85.76653890422955
 30
0.0
 11
189.9379480236911
 21
169.7665389042295
 31
0.0
  0
LINE
  5
8AB
330
7F3
100
AcDbEntity
  8
Bemaßungen(TC_020513_DIN)
  6
Continuous
 62
     7
370
    25
100
AcDbLine
 10
259.371897995414
 20
167.7665389042295
 30
0.0
 11
192.4379480236911
 21
167.7665389042295
 31
0.0
  0
SOLID
  5
8AC
330
7F3
100
AcDbEntity
  8
Bemaßungen(TC_020513_DIN)
  6
Continuous
 62
     7
100
AcDbTrace
 10
259.371897995414
 20
168.1832055708962
 30
0.0
 11
259.371897995414
 21
167.3498722375629
 31
0.0
 12
261.871897995414
 22
167.7665389042295
 32
0.0
 13
261.871897995414
 23
167.7665389042295
 33
0.0
  0
SOLID
  5
8AD
330
7F3
100
AcDbEntity
  8
Bemaßungen(TC_020513_DIN)
  6
Continuous
 62
     7
100
AcDbTrace
 10
192.4379480236911
 20
168.1832055708962
 30
0.0
 11
192.4379480236911
 21
167.3498722375629
 31
0.0
 12
189.9379480236911
 22
167.7665389042295
 32
0.0
 13
189.9379480236911
 23
167.7665389042295
 33
0.0
  0
MTEXT
  5
8AE
330
7F3
100
AcDbEntity
  8
Bemaßungen(TC_020513_DIN)
  6
Continuous
 62
     7
370
    25
100
AcDbMText
 10
223.4303322864966
 20
172.0808635972718
 30
0.0
 40
3.5
 41
0.0
 71
     1
 72
     1
  1
\A1;72
  7
Aktuell-BSI
 73
     1
 44
1.0
1001
ACAD
1000
MTEXTBEGIN
1070
    73
1070
     1
1070
    44
1040
1.0
1070
    74
1070
     0
1000
MTEXTEND
  0
POINT
  5
8AF
330
7F3
100
AcDbEntity
  8
Defpoints
  6
Continuous
 62
     0
100
AcDbPoint
 10
261.871897995414
 20
121.7665389042295
 30
0.0
  0
POINT
  5
8B0
330
7F3
100
AcDbEntity
  8
Defpoints
  6
Continuous
 62
     0
100
AcDbPoint
 10
189.9379480236911
 20
84.76653890422955
 30
0.0
  0
POINT
  5
8B1
330
7F3
100
AcDbEntity
  8
Defpoints
  6
Continuous
 62
     0
100
AcDbPoint
 10
189.9379480236911
 20
167.7665389042295
 30
0.0
  0
ENDBLK
  5
7FF
330
7F3
100
AcDbEntity
  8
0
100
AcDbBlockEnd
  0
BLOCK
  5
8BE
330
8B3
100
AcDbEntity
  8
0
100
AcDbBlockBegin
  2
*D14
 70
     1
 10
0.0
 20
0.0
 30
0.0
  3
*D14
  1

  0
LINE
  5
969
330
8B3
100
AcDbEntity
  8
Bemaßungen(TC_020513_DIN)
  6
Continuous
 62
     7
370
    25
100
AcDbLine
 10
56.07940288575051
 20
137.7665389042295
 30
0.0
 11
56.07940288575051
 21
169.7665389042295
 31
0.0
  0
LINE
  5
96A
330
8B3
100
AcDbEntity
  8
Bemaßungen(TC_020513_DIN)
  6
Continuous
 62
     7
370
    25
100
AcDbLine
 10
139.5794028857505
 20
137.7665389042295
 30
0.0
 11
139.5794028857505
 21
169.7665389042295
 31
0.0
  0
LINE
  5
96B
330
8B3
100
AcDbEntity
  8
Bemaßungen(TC_020513_DIN)
  6
Continuous
 62
     7
370
    25
100
AcDbLine
 10
58.57940288575051
 20
167.7665389042295
 30
0.0
 11
137.0794028857505
 21
167.7665389042295
 31
0.0
  0
SOLID
  5
96C
330
8B3
100
AcDbEntity
  8
Bemaßungen(TC_020513_DIN)
  6
Continuous
 62
     7
100
AcDbTrace
 10
58.57940288575051
 20
168.1832055708962
 30
0.0
 11
58.57940288575051
 21
167.3498722375629
 31
0.0
 12
56.07940288575051
 22
167.7665389042295
 32
0.0
 13
56.07940288575051
 23
167.7665389042295
 33
0.0
  0
SOLID
  5
96D
330
8B3
100
AcDbEntity
  8
Bemaßungen(TC_020513_DIN)
  6
Continuous
 62
     7
100
AcDbTrace
 10
137.0794028857505
 20
168.1832055708962
 30
0.0
 11
137.0794028857505
 21
167.3498722375629
 31
0.0
 12
139.5794028857505
 22
167.7665389042295
 32
0.0
 13
139.5794028857505
 23
167.7665389042295
 33
0.0
  0
MTEXT
  5
96E
330
8B3
100
AcDbEntity
  8
Bemaßungen(TC_020513_DIN)
  6
Continuous
 62
     7
370
    25
100
AcDbMText
 10
93.26818187620071
 20
172.7732237609826
 30
0.0
 40
3.5
 41
0.0
 71
     1
 72
     1
  1
\A1;83,5
  7
Aktuell-BSI
 73
     1
 44
1.0
1001
ACAD
1000
MTEXTBEGIN
1070
    73
1070
     1
1070
    44
1040
1.0
1070
    74
1070
     0
1000
MTEXTEND
  0
POINT
  5
96F
330
8B3
100
AcDbEntity
  8
Defpoints
  6
Continuous
 62
     0
100
AcDbPoint
 10
56.07940288575051
 20
136.7665389042295
 30
0.0
  0
POINT
  5
970
330
8B3
100
AcDbEntity
  8
Defpoints
  6
Continuous
 62
     0
100
AcDbPoint
 10
139.5794028857505
 20
136.7665389042295
 30
0.0
  0
POINT
  5
971
330
8B3
100
AcDbEntity
  8
Defpoints
  6
Continuous
 62
     0
100
AcDbPoint
 10
139.5794028857505
 20
167.7665389042295
 30
0.0
  0
ENDBLK
  5
8BF
330
8B3
100
AcDbEntity
  8
0
100
AcDbBlockEnd
  0
BLOCK
  5
97E
330
973
100
AcDbEntity
  8
0
100
AcDbBlockBegin
  2
*D15
 70
     1
 10
0.0
 20
0.0
 30
0.0
  3
*D15
  1

  0
LINE
  5
A24
330
973
100
AcDbEntity
  8
Bemaßungen(TC_020513_DIN)
  6
Continuous
 62
     7
370
    25
100
AcDbLine
 10
56.8294028857505
 20
79.26653890422954
 30
0.0
 11
56.8294028857505
 21
68.26653890422955
 31
0.0
  0
LINE
  5
A25
330
973
100
AcDbEntity
  8
Bemaßungen(TC_020513_DIN)
  6
Continuous
 62
     7
370
    25
100
AcDbLine
 10
138.8294028857505
 20
79.26653890422954
 30
0.0
 11
138.8294028857505
 21
68.26653890422955
 31
0.0
  0
LINE
  5
A26
330
973
100
AcDbEntity
  8
Bemaßungen(TC_020513_DIN)
  6
Continuous
 62
     7
370
    25
100
AcDbLine
 10
59.3294028857505
 20
70.26653890422955
 30
0.0
 11
136.3294028857505
 21
70.26653890422955
 31
0.0
  0
SOLID
  5
A27
330
973
100
AcDbEntity
  8
Bemaßungen(TC_020513_DIN)
  6
Continuous
 62
     7
100
AcDbTrace
 10
59.3294028857505
 20
70.68320557089622
 30
0.0
 11
59.3294028857505
 21
69.84987223756288
 31
0.0
 12
56.8294028857505
 22
70.26653890422955
 32
0.0
 13
56.8294028857505
 23
70.26653890422955
 33
0.0
  0
SOLID
  5
A28
330
973
100
AcDbEntity
  8
Bemaßungen(TC_020513_DIN)
  6
Continuous
 62
     7
100
AcDbTrace
 10
136.3294028857505
 20
70.68320557089622
 30
0.0
 11
136.3294028857505
 21
69.84987223756288
 31
0.0
 12
138.8294028857505
 22
70.26653890422955
 32
0.0
 13
138.8294028857505
 23
70.26653890422955
 33
0.0
  0
MTEXT
  5
A29
330
973
100
AcDbEntity
  8
Bemaßungen(TC_020513_DIN)
  6
Continuous
 62
     7
370
    25
100
AcDbMText
 10
95.33810002081191
 20
74.6405498182814
 30
0.0
 40
3.5
 41
0.0
 71
     1
 72
     1
  1
\A1;82
  7
Aktuell-BSI
 73
     1
 44
1.0
1001
ACAD
1000
MTEXTBEGIN
1070
    73
1070
     1
1070
    44
1040
1.0
1070
    74
1070
     0
1000
MTEXTEND
  0
POINT
  5
A2A
330
973
100
AcDbEntity
  8
Defpoints
  6
Continuous
 62
     0
100
AcDbPoint
 10
56.8294028857505
 20
80.26653890422954
 30
0.0
  0
POINT
  5
A2B
330
973
100
AcDbEntity
  8
Defpoints
  6
Continuous
 62
     0
100
AcDbPoint
 10
138.8294028857505
 20
80.26653890422954
 30
0.0
  0
POINT
  5
A2C
330
973
100
AcDbEntity
  8
Defpoints
  6
Continuous
 62
     0
100
AcDbPoint
 10
138.8294028857505
 20
70.26653890422955
 30
0.0
  0
ENDBLK
  5
97F
330
973
100
AcDbEntity
  8
0
100
AcDbBlockEnd
  0
BLOCK
  5
A39
330
A2E
100
AcDbEntity
  8
0
100
AcDbBlockBegin
  2
*D16
 70
     1
 10
0.0
 20
0.0
 30
0.0
  3
*D16
  1

  0
LINE
  5
AE4
330
A2E
100
AcDbEntity
  8
Bemaßungen(TC_020513_DIN)
  6
Continuous
 62
     7
370
    25
100
AcDbLine
 10
51.07940288575052
 20
83.76653890422955
 30
0.0
 11
51.07940288575052
 21
60.76653890422956
 31
0.0
  0
LINE
  5
AE5
330
A2E
100
AcDbEntity
  8
Bemaßungen(TC_020513_DIN)
  6
Continuous
 62
     7
370
    25
100
AcDbLine
 10
144.5794028857505
 20
83.76653890422955
 30
0.0
 11
144.5794028857505
 21
60.76653890422956
 31
0.0
  0
LINE
  5
AE6
330
A2E
100
AcDbEntity
  8
Bemaßungen(TC_020513_DIN)
  6
Continuous
 62
     7
370
    25
100
AcDbLine
 10
53.57940288575052
 20
62.76653890422956
 30
0.0
 11
142.0794028857505
 21
62.76653890422956
 31
0.0
  0
SOLID
  5
AE7
330
A2E
100
AcDbEntity
  8
Bemaßungen(TC_020513_DIN)
  6
Continuous
 62
     7
100
AcDbTrace
 10
53.57940288575052
 20
63.18320557089622
 30
0.0
 11
53.57940288575052
 21
62.34987223756289
 31
0.0
 12
51.07940288575052
 22
62.76653890422956
 32
0.0
 13
51.07940288575052
 23
62.76653890422956
 33
0.0
  0
SOLID
  5
AE8
330
A2E
100
AcDbEntity
  8
Bemaßungen(TC_020513_DIN)
  6
Continuous
 62
     7
100
AcDbTrace
 10
142.0794028857505
 20
63.18320557089622
 30
0.0
 11
142.0794028857505
 21
62.34987223756289
 31
0.0
 12
144.5794028857505
 22
62.76653890422956
 32
0.0
 13
144.5794028857505
 23
62.76653890422956
 33
0.0
  0
MTEXT
  5
AE9
330
A2E
100
AcDbEntity
  8
Bemaßungen(TC_020513_DIN)
  6
Continuous
 62
     7
370
    25
100
AcDbMText
 10
93.2705693250411
 20
67.77322376098263
 30
0.0
 40
3.5
 41
0.0
 71
     1
 72
     1
  1
\A1;93,5
  7
Aktuell-BSI
 73
     1
 44
1.0
1001
ACAD
1000
MTEXTBEGIN
1070
    73
1070
     1
1070
    44
1040
1.0
1070
    74
1070
     0
1000
MTEXTEND
  0
POINT
  5
AEA
330
A2E
100
AcDbEntity
  8
Defpoints
  6
Continuous
 62
     0
100
AcDbPoint
 10
51.07940288575052
 20
84.76653890422955
 30
0.0
  0
POINT
  5
AEB
330
A2E
100
AcDbEntity
  8
Defpoints
  6
Continuous
 62
     0
100
AcDbPoint
 10
144.5794028857505
 20
84.76653890422955
 30
0.0
  0
POINT
  5
AEC
330
A2E
100
AcDbEntity
  8
Defpoints
  6
Continuous
 62
     0
100
AcDbPoint
 10
144.5794028857505
 20
62.76653890422956
 30
0.0
  0
ENDBLK
  5
A3A
330
A2E
100
AcDbEntity
  8
0
100
AcDbBlockEnd
  0
BLOCK
  5
AF9
330
AEE
100
AcDbEntity
  8
0
100
AcDbBlockBegin
  2
*D17
 70
     1
 10
0.0
 20
0.0
 30
0.0
  3
*D17
  1

  0
LINE
  5
BA9
330
AEE
100
AcDbEntity
  8
Bemaßungen(TC_020513_DIN)
  6
Continuous
 62
     7
370
    25
100
AcDbLine
 10
195.9379480236928
 20
79.26653890422954
 30
0.0
 11
195.9379480236928
 21
68.26653890422955
 31
0.0
  0
LINE
  5
BAA
330
AEE
100
AcDbEntity
  8
Bemaßungen(TC_020513_DIN)
  6
Continuous
 62
     7
370
    25
100
AcDbLine
 10
235.9379480236928
 20
79.26653890422954
 30
0.0
 11
235.9379480236928
 21
68.26653890422955
 31
0.0
  0
LINE
  5
BAB
330
AEE
100
AcDbEntity
  8
Bemaßungen(TC_020513_DIN)
  6
Continuous
 62
     7
370
    25
100
AcDbLine
 10
198.4379480236928
 20
70.26653890422955
 30
0.0
 11
233.4379480236928
 21
70.26653890422955
 31
0.0
  0
SOLID
  5
BAC
330
AEE
100
AcDbEntity
  8
Bemaßungen(TC_020513_DIN)
  6
Continuous
 62
     7
100
AcDbTrace
 10
198.4379480236928
 20
70.68320557089622
 30
0.0
 11
198.4379480236928
 21
69.84987223756288
 31
0.0
 12
195.9379480236928
 22
70.26653890422955
 32
0.0
 13
195.9379480236928
 23
70.26653890422955
 33
0.0
  0
SOLID
  5
BAD
330
AEE
100
AcDbEntity
  8
Bemaßungen(TC_020513_DIN)
  6
Continuous
 62
     7
100
AcDbTrace
 10
233.4379480236928
 20
70.68320557089622
 30
0.0
 11
233.4379480236928
 21
69.84987223756288
 31
0.0
 12
235.9379480236928
 22
70.26653890422955
 32
0.0
 13
235.9379480236928
 23
70.26653890422955
 33
0.0
  0
MTEXT
  5
BAE
330
AEE
100
AcDbEntity
  8
Bemaßungen(TC_020513_DIN)
  6
Continuous
 62
     7
370
    25
100
AcDbMText
 10
213.3666656226014
 20
74.6405498182814
 30
0.0
 40
3.5
 41
0.0
 71
     1
 72
     1
  1
\A1;40
  7
Aktuell-BSI
 73
     1
 44
1.0
1001
ACAD
1000
MTEXTBEGIN
1070
    73
1070
     1
1070
    44
1040
1.0
1070
    74
1070
     0
1000
MTEXTEND
  0
POINT
  5
BAF
330
AEE
100
AcDbEntity
  8
Defpoints
  6
Continuous
 62
     0
100
AcDbPoint
 10
195.9379480236928
 20
80.26653890422954
 30
0.0
  0
POINT
  5
BB0
330
AEE
100
AcDbEntity
  8
Defpoints
  6
Continuous
 62
     0
100
AcDbPoint
 10
235.9379480236928
 20
80.26653890422954
 30
0.0
  0
POINT
  5
BB1
330
AEE
100
AcDbEntity
  8
Defpoints
  6
Continuous
 62
     0
100
AcDbPoint
 10
235.9379480236928
 20
70.26653890422955
 30
0.0
  0
ENDBLK
  5
AFA
330
AEE
100
AcDbEntity
  8
0
100
AcDbBlockEnd
  0
BLOCK
  5
BBE
330
BB3
100
AcDbEntity
  8
0
100
AcDbBlockBegin
  2
*D18
 70
     1
 10
0.0
 20
0.0
 30
0.0
  3
*D18
  1

  0
LINE
  5
C6E
330
BB3
100
AcDbEntity
  8
Bemaßungen(TC_020513_DIN)
  6
Continuous
 62
     7
370
    25
100
AcDbLine
 10
189.9379480236911
 20
83.76653890422955
 30
0.0
 11
189.9379480236911
 21
60.76653890422956
 31
0.0
  0
LINE
  5
C6F
330
BB3
100
AcDbEntity
  8
Bemaßungen(TC_020513_DIN)
  6
Continuous
 62
     7
370
    25
100
AcDbLine
 10
241.9379480236911
 20
83.76653890422955
 30
0.0
 11
241.9379480236911
 21
60.76653890422956
 31
0.0
  0
LINE
  5
C70
330
BB3
100
AcDbEntity
  8
Bemaßungen(TC_020513_DIN)
  6
Continuous
 62
     7
370
    25
100
AcDbLine
 10
192.4379480236911
 20
62.76653890422956
 30
0.0
 11
239.4379480236911
 21
62.76653890422956
 31
0.0
  0
SOLID
  5
C71
330
BB3
100
AcDbEntity
  8
Bemaßungen(TC_020513_DIN)
  6
Continuous
 62
     7
100
AcDbTrace
 10
192.4379480236911
 20
63.18320557089622
 30
0.0
 11
192.4379480236911
 21
62.34987223756289
 31
0.0
 12
189.9379480236911
 22
62.76653890422956
 32
0.0
 13
189.9379480236911
 23
62.76653890422956
 33
0.0
  0
SOLID
  5
C72
330
BB3
100
AcDbEntity
  8
Bemaßungen(TC_020513_DIN)
  6
Continuous
 62
     7
100
AcDbTrace
 10
239.4379480236911
 20
63.18320557089622
 30
0.0
 11
239.4379480236911
 21
62.34987223756289
 31
0.0
 12
241.9379480236911
 22
62.76653890422956
 32
0.0
 13
241.9379480236911
 23
62.76653890422956
 33
0.0
  0
MTEXT
  5
C73
330
BB3
100
AcDbEntity
  8
Bemaßungen(TC_020513_DIN)
  6
Continuous
 62
     7
370
    25
100
AcDbMText
 10
213.4490326075929
 20
67.1405498182814
 30
0.0
 40
3.5
 41
0.0
 71
     1
 72
     1
  1
\A1;52
  7
Aktuell-BSI
 73
     1
 44
1.0
1001
ACAD
1000
MTEXTBEGIN
1070
    73
1070
     1
1070
    44
1040
1.0
1070
    74
1070
     0
1000
MTEXTEND
  0
POINT
  5
C74
330
BB3
100
AcDbEntity
  8
Defpoints
  6
Continuous
 62
     0
100
AcDbPoint
 10
189.9379480236911
 20
84.76653890422955
 30
0.0
  0
POINT
  5
C75
330
BB3
100
AcDbEntity
  8
Defpoints
  6
Continuous
 62
     0
100
AcDbPoint
 10
241.9379480236911
 20
84.76653890422955
 30
0.0
  0
POINT
  5
C76
330
BB3
100
AcDbEntity
  8
Defpoints
  6
Continuous
 62
     0
100
AcDbPoint
 10
241.9379480236911
 20
62.76653890422956
 30
0.0
  0
ENDBLK
  5
BBF
330
BB3
100
AcDbEntity
  8
0
100
AcDbBlockEnd
  0
BLOCK
  5
C83
330
C78
100
AcDbEntity
  8
0
100
AcDbBlockBegin
  2
*D19
 70
     1
 10
0.0
 20
0.0
 30
0.0
  3
*D19
  1

  0
LINE
  5
D2E
330
C78
100
AcDbEntity
  8
Bemaßungen(TC_020513_DIN)
  6
Continuous
 62
     7
370
    25
100
AcDbLine
 10
50.07940288575052
 20
82.76653890422954
 30
0.0
 11
27.07940288575053
 21
82.76653890422956
 31
0.0
  0
LINE
  5
D2F
330
C78
100
AcDbEntity
  8
Bemaßungen(TC_020513_DIN)
  6
Continuous
 62
     7
370
    25
100
AcDbLine
 10
59.07940288575052
 20
157.7665389042295
 30
0.0
 11
27.07940288575055
 21
157.7665389042295
 31
0.0
  0
LINE
  5
D30
330
C78
100
AcDbEntity
  8
Bemaßungen(TC_020513_DIN)
  6
Continuous
 62
     7
370
    25
100
AcDbLine
 10
29.07940288575053
 20
85.26653890422956
 30
0.0
 11
29.07940288575055
 21
155.2665389042295
 31
0.0
  0
SOLID
  5
D31
330
C78
100
AcDbEntity
  8
Bemaßungen(TC_020513_DIN)
  6
Continuous
 62
     7
100
AcDbTrace
 10
28.66273621908386
 20
85.26653890422956
 30
0.0
 11
29.4960695524172
 21
85.26653890422956
 31
0.0
 12
29.07940288575053
 22
82.76653890422956
 32
0.0
 13
29.07940288575053
 23
82.76653890422956
 33
0.0
  0
SOLID
  5
D32
330
C78
100
AcDbEntity
  8
Bemaßungen(TC_020513_DIN)
  6
Continuous
 62
     7
100
AcDbTrace
 10
28.66273621908388
 20
155.2665389042295
 30
0.0
 11
29.49606955241721
 21
155.2665389042295
 31
0.0
 12
29.07940288575055
 22
157.7665389042295
 32
0.0
 13
29.07940288575055
 23
157.7665389042295
 33
0.0
  0
MTEXT
  5
D33
330
C78
100
AcDbEntity
  8
Bemaßungen(TC_020513_DIN)
  6
Continuous
 62
     7
370
    25
100
AcDbMText
 10
24.71971666474097
 20
117.7609113462486
 30
0.0
 40
3.5
 41
0.0
 71
     1
 72
     1
  1
\A1;75
  7
Aktuell-BSI
 11
0.0000000000000001
 21
1.0
 31
0.0
 73
     1
 44
1.0
1001
ACAD
1000
MTEXTBEGIN
1070
    73
1070
     1
1070
    44
1040
1.0
1070
    74
1070
     0
1000
MTEXTEND
  0
POINT
  5
D34
330
C78
100
AcDbEntity
  8
Defpoints
  6
Continuous
 62
     0
100
AcDbPoint
 10
51.07940288575052
 20
82.76653890422954
 30
0.0
  0
POINT
  5
D35
330
C78
100
AcDbEntity
  8
Defpoints
  6
Continuous
 62
     0
100
AcDbPoint
 10
60.07940288575053
 20
157.7665389042295
 30
0.0
  0
POINT
  5
D36
330
C78
100
AcDbEntity
  8
Defpoints
  6
Continuous
 62
     0
100
AcDbPoint
 10
29.07940288575055
 20
157.7665389042295
 30
0.0
  0
ENDBLK
  5
C84
330
C78
100
AcDbEntity
  8
0
100
AcDbBlockEnd
  0
BLOCK
  5
D43
330
D38
100
AcDbEntity
  8
0
100
AcDbBlockBegin
  2
*D20
 70
     1
 10
0.0
 20
0.0
 30
0.0
  3
*D20
  1

  0
LINE
  5
DF3
330
D38
100
AcDbEntity
  8
Bemaßungen(TC_020513_DIN)
  6
Continuous
 62
     7
370
    25
100
AcDbLine
 10
236.0879480236956
 20
139.7665389042295
 30
0.0
 11
277.0879480236956
 21
139.7665389042295
 31
0.0
  0
LINE
  5
DF4
330
D38
100
AcDbEntity
  8
Bemaßungen(TC_020513_DIN)
  6
Continuous
 62
     7
370
    25
100
AcDbLine
 10
242.9379480236911
 20
82.76653890422954
 30
0.0
 11
277.0879480236956
 21
82.76653890422954
 31
0.0
  0
LINE
  5
DF5
330
D38
100
AcDbEntity
  8
Bemaßungen(TC_020513_DIN)
  6
Continuous
 62
     7
370
    25
100
AcDbLine
 10
275.0879480236956
 20
137.2665389042295
 30
0.0
 11
275.0879480236956
 21
85.26653890422954
 31
0.0
  0
SOLID
  5
DF6
330
D38
100
AcDbEntity
  8
Bemaßungen(TC_020513_DIN)
  6
Continuous
 62
     7
100
AcDbTrace
 10
274.6712813570289
 20
137.2665389042295
 30
0.0
 11
275.5046146903623
 21
137.2665389042295
 31
0.0
 12
275.0879480236956
 22
139.7665389042295
 32
0.0
 13
275.0879480236956
 23
139.7665389042295
 33
0.0
  0
SOLID
  5
DF7
330
D38
100
AcDbEntity
  8
Bemaßungen(TC_020513_DIN)
  6
Continuous
 62
     7
100
AcDbTrace
 10
274.6712813570289
 20
85.26653890422954
 30
0.0
 11
275.5046146903623
 21
85.26653890422954
 31
0.0
 12
275.0879480236956
 22
82.76653890422954
 32
0.0
 13
275.0879480236956
 23
82.76653890422954
 33
0.0
  0
MTEXT
  5
DF8
330
D38
100
AcDbEntity
  8
Bemaßungen(TC_020513_DIN)
  6
Continuous
 62
     7
370
    25
100
AcDbMText
 10
270.728261802686
 20
108.7597176218284
 30
0.0
 40
3.5
 41
0.0
 71
     1
 72
     1
  1
\A1;57
  7
Aktuell-BSI
 11
0.0000000000000001
 21
1.0
 31
0.0
 73
     1
 44
1.0
1001
ACAD
1000
MTEXTBEGIN
1070
    73
1070
     1
1070
    44
1040
1.0
1070
    74
1070
     0
1000
MTEXTEND
  0
POINT
  5
DF9
330
D38
100
AcDbEntity
  8
Defpoints
  6
Continuous
 62
     0
100
AcDbPoint
 10
235.0879480236955
 20
139.7665389042295
 30
0.0
  0
POINT
  5
DFA
330
D38
100
AcDbEntity
  8
Defpoints
  6
Continuous
 62
     0
100
AcDbPoint
 10
241.9379480236911
 20
82.76653890422954
 30
0.0
  0
POINT
  5
DFB
330
D38
100
AcDbEntity
  8
Defpoints
  6
Continuous
 62
     0
100
AcDbPoint
 10
275.0879480236956
 20
82.76653890422954
 30
0.0
  0
ENDBLK
  5
D44
330
D38
100
AcDbEntity
  8
0
100
AcDbBlockEnd
  0
BLOCK
  5
E08
330
DFD
100
AcDbEntity
  8
0
100
AcDbBlockBegin
  2
*D21
 70
     1
 10
0.0
 20
0.0
 30
0.0
  3
*D21
  1

  0
LINE
  5
ECE
330
DFD
100
AcDbEntity
  8
Bemaßungen(TC_020513_DIN)
  6
Continuous
 62
     7
370
    25
100
AcDbLine
 10
242.9379480236911
 20
86.76653890422954
 30
0.0
 11
265.9379480236911
 21
86.76653890422954
 31
0.0
  0
LINE
  5
ECF
330
DFD
100
AcDbEntity
  8
Bemaßungen(TC_020513_DIN)
  6
Continuous
 62
     7
370
    25
100
AcDbLine
 10
242.9379480236911
 20
82.76653890422954
 30
0.0
 11
265.9379480236911
 21
82.76653890422954
 31
0.0
  0
LINE
  5
ED0
330
DFD
100
AcDbEntity
  8
Bemaßungen(TC_020513_DIN)
  6
Continuous
 62
     7
370
    25
100
AcDbLine
 10
263.9379480236911
 20
89.26653890422954
 30
0.0
 11
263.9379480236911
 21
91.76653890422954
 31
0.0
  0
LINE
  5
ED1
330
DFD
100
AcDbEntity
  8
Bemaßungen(TC_020513_DIN)
  6
Continuous
 62
     7
370
    25
100
AcDbLine
 10
263.9379480236911
 20
80.26653890422954
 30
0.0
 11
263.9379480236911
 21
77.76653890422955
 31
0.0
  0
LINE
  5
ED2
330
DFD
100
AcDbEntity
  8
Bemaßungen(TC_020513_DIN)
  6
Continuous
 62
     7
370
    25
100
AcDbLine
 10
263.9379480236911
 20
86.76653890422954
 30
0.0
 11
263.9379480236911
 21
82.76653890422954
 31
0.0
  0
SOLID
  5
ED3
330
DFD
100
AcDbEntity
  8
Bemaßungen(TC_020513_DIN)
  6
Continuous
 62
     7
100
AcDbTrace
 10
263.5212813570244
 20
89.26653890422954
 30
0.0
 11
264.3546146903578
 21
89.26653890422954
 31
0.0
 12
263.9379480236911
 22
86.76653890422954
 32
0.0
 13
263.9379480236911
 23
86.76653890422954
 33
0.0
  0
SOLID
  5
ED4
330
DFD
100
AcDbEntity
  8
Bemaßungen(TC_020513_DIN)
  6
Continuous
 62
     7
100
AcDbTrace
 10
263.5212813570244
 20
80.26653890422954
 30
0.0
 11
264.3546146903578
 21
80.26653890422954
 31
0.0
 12
263.9379480236911
 22
82.76653890422954
 32
0.0
 13
263.9379480236911
 23
82.76653890422954
 33
0.0
  0
MTEXT
  5
ED5
330
DFD
100
AcDbEntity
  8
Bemaßungen(TC_020513_DIN)
  6
Continuous
 62
     7
370
    25
100
AcDbMText
 10
259.6379480236911
 20
83.55610234215593
 30
0.0
 40
3.5
 41
0.0
 71
     1
 72
     1
  1
\A1;4
  7
Aktuell-BSI
 11
0.0000000000000001
 21
1.0
 31
0.0
 73
     1
 44
1.0
1001
ACAD
1000
MTEXTBEGIN
1070
    73
1070
     1
1070
    44
1040
1.0
1070
    74
1070
     0
1000
MTEXTEND
  0
POINT
  5
ED6
330
DFD
100
AcDbEntity
  8
Defpoints
  6
Continuous
 62
     0
100
AcDbPoint
 10
241.9379480236911
 20
86.76653890422954
 30
0.0
  0
POINT
  5
ED7
330
DFD
100
AcDbEntity
  8
Defpoints
  6
Continuous
 62
     0
100
AcDbPoint
 10
241.9379480236911
 20
82.76653890422954
 30
0.0
  0
POINT
  5
ED8
330
DFD
100
AcDbEntity
  8
Defpoints
  6
Continuous
 62
     0
100
AcDbPoint
 10
263.9379480236911
 20
82.76653890422954
 30
0.0
  0
ENDBLK
  5
E09
330
DFD
100
AcDbEntity
  8
0
100
AcDbBlockEnd
  0
ENDSEC
  0
SECTION
  2
ENTITIES
  0
INSERT
  5
155
330
37
100
AcDbEntity
  8
0
100
AcDbBlockReference
  2
Ränder Ilme Rahmen A4 quer
 10
0.0
 20
0.0
 30
0.0
  0
INSERT
  5
1C9
330
37
100
AcDbEntity
  8
0
100
AcDbBlockReference
 66
     1
  2
Schriftfelder Ilme
 10
87.01981004969702
 20
-0.0006400926262484
 30
0.0
  0
ATTRIB
  5
1CB
330
1C9
100
AcDbEntity
  8
Symbole(ISO)
 62
     7
100
AcDbText
 10
138.0
 20
11.74999997019763
 30
0.0
 40
4.000000059604644
  1
surface mounting h. 1 lev. 2xPG16
 41
1.199999928474426
  7
Kopie von TC 5 mm
 11
138.0
 21
13.74999999999995
 31
0.0
100
AcDbAttribute
  2
BEZEICHNUNG
 70
     0
 74
     2
  0
ATTRIB
  5
1CC
330
1C9
100
AcDbEntity
  8
Symbole(ISO)
 62
     7
100
AcDbText
 10
251.3054571416743
 20
12.49999999999995
 30
0.0
 40
5.0
  1
1:1
 41
0.899999976158142
  7
TC 5 mm
 72
     1
 11
255.675
 21
14.99999999999995
 31
0.0
100
AcDbAttribute
  2
FirstViewScale
 70
     0
 74
     2
  0
ATTRIB
  5
1CD
330
1C9
100
AcDbEntity
  8
Symbole(ISO)
 62
     7
100
AcDbText
 10
138.0
 20
19.24999997019763
 30
0.0
 40
4.000000059604644
  1
CVP 10 L2
 41
1.199999928474426
  7
Kopie von TC 5 mm
 11
138.0
 21
21.24999999999996
 31
0.0
100
AcDbAttribute
  2
BAUTEILNUMMER
 70
     0
 74
     2
  0
SEQEND
  5
1CA
330
1C9
100
AcDbEntity
  8
0
  0
ARC
  5
1CE
330
37
100
AcDbEntity
  8
Sichtbare Kanten(TC_020513_DIN)
100
AcDbCircle
 10
100.8294028857505
 20
143.2665389042295
 30
0.0
 40
0.2499999999999991
100
AcDbArc
 50
270.0
 51
90.0
  0
LINE
  5
1CF
330
37
100
AcDbEntity
  8
Sichtbare Kanten(TC_020513_DIN)
100
AcDbLine
 10
100.8294028857505
 20
143.0165389042295
 30
0.0
 11
100.0794028857505
 21
143.0165389042295
 31
0.0
  0
LINE
  5
1D0
330
37
100
AcDbEntity
  8
Sichtbare Kanten(TC_020513_DIN)
100
AcDbLine
 10
100.0794028857505
 20
143.0165389042295
 30
0.0
 11
100.0794028857505
 21
141.9691028288298
 31
0.0
  0
LINE
  5
1D1
330
37
100
AcDbEntity
  8
Sichtbare Kanten(TC_020513_DIN)
100
AcDbLine
 10
100.0794028857505
 20
141.9691028288298
 30
0.0
 11
100.7044722723781
 21
142.3297197826534
 31
0.0
  0
ARC
  5
1D2
330
37
100
AcDbEntity
  8
Sichtbare Kanten(TC_020513_DIN)
100
AcDbCircle
 10
100.8294028857505
 20
142.1131733861413
 30
0.0
 40
0.2500000000000027
100
AcDbArc
 50
299.981639368847
 51
119.981639368847
  0
LINE
  5
1D3
330
37
100
AcDbEntity
  8
Sichtbare Kanten(TC_020513_DIN)
100
AcDbLine
 10
100.9543334991229
 20
141.8966269896291
 30
0.0
 11
99.95433349912291
 21
141.319703912706
 31
0.0
  0
ARC
  5
1D4
330
37
100
AcDbEntity
  8
Sichtbare Kanten(TC_020513_DIN)
100
AcDbCircle
 10
99.82940288575051
 20
141.5362503092182
 30
0.0
 40
0.2499999999999999
100
AcDbArc
 50
180.0
 51
299.981639368847
  0
LINE
  5
1D5
330
37
100
AcDbEntity
  8
Sichtbare Kanten(TC_020513_DIN)
100
AcDbLine
 10
99.57940288575052
 20
141.5362503092182
 30
0.0
 11
99.57940288575052
 21
144.9968274992408
 31
0.0
  0
LINE
  5
1D6
330
37
100
AcDbEntity
  8
Sichtbare Kanten(TC_020513_DIN)
100
AcDbLine
 10
100.0794028857505
 20
143.5165389042295
 30
0.0
 11
100.8294028857505
 21
143.5165389042295
 31
0.0
  0
LINE
  5
1D7
330
37
100
AcDbEntity
  8
Sichtbare Kanten(TC_020513_DIN)
100
AcDbLine
 10
100.0794028857505
 20
144.5639749796292
 30
0.0
 11
100.0794028857505
 21
143.5165389042295
 31
0.0
  0
LINE
  5
1D8
330
37
100
AcDbEntity
  8
Sichtbare Kanten(TC_020513_DIN)
100
AcDbLine
 10
100.7044722723781
 20
144.2033580258056
 30
0.0
 11
100.0794028857505
 21
144.5639749796292
 31
0.0
  0
ARC
  5
1D9
330
37
100
AcDbEntity
  8
Sichtbare Kanten(TC_020513_DIN)
100
AcDbCircle
 10
100.8294028857505
 20
144.4199044223178
 30
0.0
 40
0.2499999999999989
100
AcDbArc
 50
240.018360631153
 51
60.01836063115301
  0
LINE
  5
1DA
330
37
100
AcDbEntity
  8
Sichtbare Kanten(TC_020513_DIN)
100
AcDbLine
 10
99.95433349912291
 20
145.213373895753
 30
0.0
 11
100.9543334991229
 21
144.6364508188299
 31
0.0
  0
ARC
  5
1DB
330
37
100
AcDbEntity
  8
Sichtbare Kanten(TC_020513_DIN)
100
AcDbCircle
 10
99.82940288575051
 20
144.9968274992408
 30
0.0
 40
0.2500000000000005
100
AcDbArc
 50
60.0183606311474
 51
180.0
  0
ARC
  5
1DC
330
37
100
AcDbEntity
  8
Sichtbare Kanten(TC_020513_DIN)
100
AcDbCircle
 10
94.77940288575053
 20
142.1420195399875
 30
0.0
 40
0.2500000000000002
100
AcDbArc
 50
180.0
 51
0.0
  0
LINE
  5
1DD
330
37
100
AcDbEntity
  8
Sichtbare Kanten(TC_020513_DIN)
100
AcDbLine
 10
94.52940288575051
 20
142.1420195399875
 30
0.0
 11
94.52940288575051
 21
144.3910582684716
 31
0.0
  0
ARC
  5
1DE
330
37
100
AcDbEntity
  8
Sichtbare Kanten(TC_020513_DIN)
100
AcDbCircle
 10
94.77940288575053
 20
144.3910582684716
 30
0.0
 40
0.2500000000000002
100
AcDbArc
 50
0.0
 51
180.0
  0
LINE
  5
1DF
330
37
100
AcDbEntity
  8
Sichtbare Kanten(TC_020513_DIN)
100
AcDbLine
 10
95.02940288575052
 20
144.3910582684716
 30
0.0
 11
95.02940288575052
 21
142.1420195399875
 31
0.0
  0
LINE
  5
1E0
330
37
100
AcDbEntity
  8
Sichtbare Kanten(TC_020513_DIN)
100
AcDbLine
 10
103.8291251850904
 20
143.2665389042295
 30
0.0
 11
97.82940288575051
 21
146.7279171538487
 31
0.0
  0
LINE
  5
1E1
330
37
100
AcDbEntity
  8
Sichtbare Kanten(TC_020513_DIN)
100
AcDbLine
 10
97.82940288575051
 20
146.7279171538487
 30
0.0
 11
91.82968058641064
 21
143.2665389042295
 31
0.0
  0
LINE
  5
1E2
330
37
100
AcDbEntity
  8
Sichtbare Kanten(TC_020513_DIN)
100
AcDbLine
 10
97.82940288575051
 20
147.0165389042295
 30
0.0
 11
104.3294028857505
 21
143.2665389042295
 31
0.0
  0
LINE
  5
1E3
330
37
100
AcDbEntity
  8
Sichtbare Kanten(TC_020513_DIN)
100
AcDbLine
 10
104.3294028857505
 20
143.2665389042295
 30
0.0
 11
97.82940288575051
 21
139.5165389042295
 31
0.0
  0
LINE
  5
1E4
330
37
100
AcDbEntity
  8
Sichtbare Kanten(TC_020513_DIN)
100
AcDbLine
 10
91.82968058641064
 20
143.2665389042295
 30
0.0
 11
97.82940288575051
 21
139.8051606546104
 31
0.0
  0
LINE
  5
1E5
330
37
100
AcDbEntity
  8
Sichtbare Kanten(TC_020513_DIN)
100
AcDbLine
 10
97.82940288575051
 20
139.8051606546104
 30
0.0
 11
103.8291251850904
 21
143.2665389042295
 31
0.0
  0
LINE
  5
1E6
330
37
100
AcDbEntity
  8
Sichtbare Kanten(TC_020513_DIN)
100
AcDbLine
 10
97.82940288575051
 20
139.5165389042295
 30
0.0
 11
91.32940288575051
 21
143.2665389042295
 31
0.0
  0
LINE
  5
1E7
330
37
100
AcDbEntity
  8
Sichtbare Kanten(TC_020513_DIN)
100
AcDbLine
 10
91.32940288575051
 20
143.2665389042295
 30
0.0
 11
97.82940288575051
 21
147.0165389042295
 31
0.0
  0
ARC
  5
1E8
330
37
100
AcDbEntity
  8
Sichtbare Kanten(TC_020513_DIN)
100
AcDbCircle
 10
97.82940288575051
 20
140.382404155372
 30
0.0
 40
0.2499999999999969
100
AcDbArc
 50
240.0183606311494
 51
60.0183606311494
  0
LINE
  5
1E9
330
37
100
AcDbEntity
  8
Sichtbare Kanten(TC_020513_DIN)
100
AcDbLine
 10
97.70447227237813
 20
140.1658577588599
 30
0.0
 11
95.65447227237811
 21
141.3485500665522
 31
0.0
  0
ARC
  5
1EA
330
37
100
AcDbEntity
  8
Sichtbare Kanten(TC_020513_DIN)
100
AcDbCircle
 10
95.77940288575051
 20
141.5650964630643
 30
0.0
 40
0.2499999999999992
100
AcDbArc
 50
180.0
 51
240.018360631153
  0
LINE
  5
1EB
330
37
100
AcDbEntity
  8
Sichtbare Kanten(TC_020513_DIN)
100
AcDbLine
 10
95.52940288575051
 20
141.5650964630644
 30
0.0
 11
95.52940288575051
 21
144.9679813453947
 31
0.0
  0
LINE
  5
1EC
330
37
100
AcDbEntity
  8
Sichtbare Kanten(TC_020513_DIN)
100
AcDbLine
 10
96.02940288575053
 20
141.7094874442144
 30
0.0
 11
97.95433349912293
 21
140.5989505518842
 31
0.0
  0
LINE
  5
1ED
330
37
100
AcDbEntity
  8
Sichtbare Kanten(TC_020513_DIN)
100
AcDbLine
 10
96.02940288575053
 20
144.9679813453947
 30
0.0
 11
96.02940288575053
 21
141.7094874442144
 31
0.0
  0
ARC
  5
1EE
330
37
100
AcDbEntity
  8
Sichtbare Kanten(TC_020513_DIN)
100
AcDbCircle
 10
95.77940288575051
 20
144.9679813453947
 30
0.0
 40
0.2499999999999996
100
AcDbArc
 50
0.0
 51
180.0
  0
LINE
  5
1EF
330
37
100
AcDbEntity
  8
Sichtbare Kanten(TC_020513_DIN)
100
AcDbLine
 10
97.03188879207758
 20
145.7203775100435
 30
0.0
 11
97.82940288575051
 21
144.6190425793231
 31
0.0
  0
LINE
  5
1F0
330
37
100
AcDbEntity
  8
Sichtbare Kanten(TC_020513_DIN)
100
AcDbLine
 10
97.82940288575051
 20
144.6190425793231
 30
0.0
 11
98.62691697942347
 21
145.7203775100435
 31
0.0
  0
ARC
  5
1F1
330
37
100
AcDbEntity
  8
Sichtbare Kanten(TC_020513_DIN)
100
AcDbCircle
 10
98.82940288575051
 20
145.5737505761639
 30
0.0
 40
0.2500000000000012
100
AcDbArc
 50
0.0
 51
144.0904238229692
  0
LINE
  5
1F2
330
37
100
AcDbEntity
  8
Sichtbare Kanten(TC_020513_DIN)
100
AcDbLine
 10
99.07940288575051
 20
145.5737505761639
 30
0.0
 11
99.07940288575051
 21
140.9593272322951
 31
0.0
  0
ARC
  5
1F3
330
37
100
AcDbEntity
  8
Sichtbare Kanten(TC_020513_DIN)
100
AcDbCircle
 10
98.82940288575051
 20
140.9593272322951
 30
0.0
 40
0.25
100
AcDbArc
 50
180.0
 51
0.0
  0
LINE
  5
1F4
330
37
100
AcDbEntity
  8
Sichtbare Kanten(TC_020513_DIN)
100
AcDbLine
 10
98.57940288575051
 20
140.9593272322951
 30
0.0
 11
98.57940288575051
 21
144.8022587800203
 31
0.0
  0
LINE
  5
1F5
330
37
100
AcDbEntity
  8
Sichtbare Kanten(TC_020513_DIN)
100
AcDbLine
 10
98.57940288575051
 20
144.8022587800203
 30
0.0
 11
97.82940288575051
 21
143.7665389042295
 31
0.0
  0
ARC
  5
1F6
330
37
100
AcDbEntity
  8
Sichtbare Kanten(TC_020513_DIN)
100
AcDbCircle
 10
96.82940288575053
 20
145.5737505761639
 30
0.0
 40
0.2499999999999996
100
AcDbArc
 50
35.90957617703075
 51
180.0
  0
LINE
  5
1F7
330
37
100
AcDbEntity
  8
Sichtbare Kanten(TC_020513_DIN)
100
AcDbLine
 10
96.57940288575051
 20
142.1420195399875
 30
0.0
 11
96.57940288575051
 21
145.5737505761639
 31
0.0
  0
ARC
  5
1F8
330
37
100
AcDbEntity
  8
Sichtbare Kanten(TC_020513_DIN)
100
AcDbCircle
 10
96.82940288575053
 20
142.1420195399875
 30
0.0
 40
0.2499999999999992
100
AcDbArc
 50
180.0
 51
0.0
  0
LINE
  5
1F9
330
37
100
AcDbEntity
  8
Sichtbare Kanten(TC_020513_DIN)
100
AcDbLine
 10
97.07940288575052
 20
144.8022587800203
 30
0.0
 11
97.07940288575052
 21
142.1420195399875
 31
0.0
  0
LINE
  5
1FA
330
37
100
AcDbEntity
  8
Sichtbare Kanten(TC_020513_DIN)
100
AcDbLine
 10
97.82940288575051
 20
143.7665389042295
 30
0.0
 11
97.07940288575052
 21
144.8022587800203
 31
0.0
  0
LINE
  5
1FB
330
37
100
AcDbEntity
  8
Sichtbare Kanten(TC_020513_DIN)
100
AcDbLine
 10
122.7028856613295
 20
138.5673472107271
 30
0.0
 11
123.0712841265875
 21
139.9422290005002
 31
0.0
  0
ARC
  5
1FC
330
37
100
AcDbEntity
  8
Sichtbare Kanten(TC_020513_DIN)
100
AcDbCircle
 10
123.3127655831597
 20
139.8775242392246
 30
0.0
 40
0.2499999999999934
100
AcDbArc
 50
90.0
 51
165.0000000000003
  0
LINE
  5
1FD
330
37
100
AcDbEntity
  8
Sichtbare Kanten(TC_020513_DIN)
100
AcDbLine
 10
123.3127655831597
 20
140.1275242392246
 30
0.0
 11
132.7794028857505
 21
140.1275242392246
 31
0.0
  0
LINE
  5
1FE
330
37
100
AcDbEntity
  8
Sichtbare Kanten(TC_020513_DIN)
100
AcDbLine
 10
132.7794028857505
 20
150.1275242392246
 30
0.0
 11
130.8127655831597
 21
150.1275242392246
 31
0.0
  0
ARC
  5
1FF
330
37
100
AcDbEntity
  8
Sichtbare Kanten(TC_020513_DIN)
100
AcDbCircle
 10
130.8127655831597
 20
149.1275242392246
 30
0.0
 40
0.9999999999999831
100
AcDbArc
 50
90.0
 51
140.0000000000008
  0
LINE
  5
200
330
37
100
AcDbEntity
  8
Sichtbare Kanten(TC_020513_DIN)
100
AcDbLine
 10
130.0467211400407
 20
149.7703118489111
 30
0.0
 11
128.9679954476142
 21
148.484736629538
 31
0.0
  0
ARC
  5
201
330
37
100
AcDbEntity
  8
Sichtbare Kanten(TC_020513_DIN)
100
AcDbCircle
 10
128.2019510044952
 20
149.1275242392246
 30
0.0
 40
1.000000000000033
100
AcDbArc
 50
270.000000000001
 51
319.9999999999992
  0
LINE
  5
202
330
37
100
AcDbEntity
  8
Sichtbare Kanten(TC_020513_DIN)
100
AcDbLine
 10
128.2019510044952
 20
148.1275242392246
 30
0.0
 11
123.3127655831597
 21
148.1275242392246
 31
0.0
  0
ARC
  5
203
330
37
100
AcDbEntity
  8
Sichtbare Kanten(TC_020513_DIN)
100
AcDbCircle
 10
123.3127655831597
 20
149.6275242392246
 30
0.0
 40
1.499999999999996
100
AcDbArc
 50
226.2398789709822
 51
270.0
  0
LINE
  5
204
330
37
100
AcDbEntity
  8
Sichtbare Kanten(TC_020513_DIN)
100
AcDbLine
 10
121.2016159602326
 20
149.9441615418153
 30
0.0
 11
119.8794808535003
 21
149.9441615418153
 31
0.0
  0
LINE
  5
205
330
37
100
AcDbEntity
  8
Sichtbare Kanten(TC_020513_DIN)
100
AcDbLine
 10
117.9476292009221
 20
149.9441615418153
 30
0.0
 11
119.8794808535003
 21
149.9441615418153
 31
0.0
  0
ELLIPSE
  5
206
330
37
100
AcDbEntity
  8
Sichtbare Kanten(TC_020513_DIN)
100
AcDbEllipse
 10
118.9067879358958
 20
132.9364499060606
 30
0.0
 11
2.000000000000001
 21
0.0000000000000013
 31
0.0
210
0.0
220
0.0
230
1.0
 40
0.906307787036648
 41
4.712388980384688
 42
6.021385919380437
  0
LINE
  5
207
330
37
100
AcDbEntity
  8
Sichtbare Kanten(TC_020513_DIN)
100
AcDbLine
 10
120.838639588474
 20
132.467310474041
 30
0.0
 11
122.4671852412759
 21
137.9756816442901
 31
0.0
  0
LINE
  5
208
330
37
100
AcDbEntity
  8
Sichtbare Kanten(TC_020513_DIN)
100
AcDbLine
 10
119.8794808535003
 20
151.3441615418153
 30
0.0
 11
117.9476292009222
 21
151.3441615418153
 31
0.0
  0
LINE
  5
209
330
37
100
AcDbEntity
  8
Sichtbare Kanten(TC_020513_DIN)
100
AcDbLine
 10
119.8794808535003
 20
151.3441615418153
 30
0.0
 11
121.2016159602326
 21
151.3441615418153
 31
0.0
  0
LINE
  5
20A
330
37
100
AcDbEntity
  8
Sichtbare Kanten(TC_020513_DIN)
100
AcDbLine
 10
135.5794028857505
 20
152.6100001730196
 30
0.0
 11
135.5794028857505
 21
150.562780488421
 31
0.0
  0
LINE
  5
20B
330
37
100
AcDbEntity
  8
Sichtbare Kanten(TC_020513_DIN)
100
AcDbLine
 10
134.1794028857505
 20
150.562780488421
 30
0.0
 11
134.1794028857505
 21
152.6100001730196
 31
0.0
  0
LINE
  5
20C
330
37
100
AcDbEntity
  8
Sichtbare Kanten(TC_020513_DIN)
100
AcDbLine
 10
135.5794028857505
 20
140.1275242392246
 30
0.0
 11
135.5794028857505
 21
136.1586886673224
 31
0.0
  0
LINE
  5
20D
330
37
100
AcDbEntity
  8
Sichtbare Kanten(TC_020513_DIN)
100
AcDbLine
 10
135.5794028857505
 20
136.1586886673224
 30
0.0
 11
135.5794028857505
 21
135.8101167756033
 31
0.0
  0
LINE
  5
20E
330
37
100
AcDbEntity
  8
Sichtbare Kanten(TC_020513_DIN)
100
AcDbLine
 10
135.5794028857505
 20
135.8101167756033
 30
0.0
 11
135.5794028857505
 21
130.9821372195006
 31
0.0
  0
LINE
  5
20F
330
37
100
AcDbEntity
  8
Sichtbare Kanten(TC_020513_DIN)
100
AcDbLine
 10
135.5794028857505
 20
122.7665389042295
 30
0.0
 11
135.5794028857505
 21
130.9821372195006
 31
0.0
  0
LINE
  5
210
330
37
100
AcDbEntity
  8
Sichtbare Kanten(TC_020513_DIN)
100
AcDbLine
 10
135.5794028857505
 20
122.7665389042295
 30
0.0
 11
135.5794028857505
 21
122.6288839892221
 31
0.0
  0
LINE
  5
211
330
37
100
AcDbEntity
  8
Sichtbare Kanten(TC_020513_DIN)
100
AcDbLine
 10
135.5794028857505
 20
152.6100001730196
 30
0.0
 11
135.5794028857505
 21
157.7665389042295
 31
0.0
  0
LINE
  5
212
330
37
100
AcDbEntity
  8
Sichtbare Kanten(TC_020513_DIN)
100
AcDbLine
 10
134.1794028857505
 20
157.7665389042295
 30
0.0
 11
134.1794028857505
 21
152.6100001730196
 31
0.0
  0
LINE
  5
213
330
37
100
AcDbEntity
  8
Sichtbare Kanten(TC_020513_DIN)
100
AcDbLine
 10
134.1794028857505
 20
122.6288839892221
 30
0.0
 11
134.1794028857505
 21
122.7665389042295
 31
0.0
  0
LINE
  5
214
330
37
100
AcDbEntity
  8
Sichtbare Kanten(TC_020513_DIN)
100
AcDbLine
 10
134.1794028857505
 20
130.9821372195006
 30
0.0
 11
134.1794028857505
 21
122.7665389042295
 31
0.0
  0
LINE
  5
215
330
37
100
AcDbEntity
  8
Sichtbare Kanten(TC_020513_DIN)
100
AcDbLine
 10
134.1794028857505
 20
130.9821372195006
 30
0.0
 11
134.1794028857505
 21
135.8101167756033
 31
0.0
  0
LINE
  5
216
330
37
100
AcDbEntity
  8
Sichtbare Kanten(TC_020513_DIN)
100
AcDbLine
 10
134.1794028857505
 20
135.8101167756033
 30
0.0
 11
134.1794028857505
 21
136.1586886673224
 31
0.0
  0
LINE
  5
217
330
37
100
AcDbEntity
  8
Sichtbare Kanten(TC_020513_DIN)
100
AcDbLine
 10
134.1794028857505
 20
136.1586886673224
 30
0.0
 11
134.1794028857505
 21
140.1275242392246
 31
0.0
  0
LINE
  5
218
330
37
100
AcDbEntity
  8
Sichtbare Kanten(TC_020513_DIN)
100
AcDbLine
 10
135.5794028857505
 20
122.7665389042295
 30
0.0
 11
134.1794028857505
 21
122.7665389042295
 31
0.0
  0
LINE
  5
219
330
37
100
AcDbEntity
  8
Sichtbare Kanten(TC_020513_DIN)
100
AcDbLine
 10
135.5794028857505
 20
157.7665389042295
 30
0.0
 11
134.1794028857505
 21
157.7665389042295
 31
0.0
  0
LINE
  5
21A
330
37
100
AcDbEntity
  8
Sichtbare Kanten(TC_020513_DIN)
100
AcDbLine
 10
135.6794028857505
 20
122.5288839892221
 30
0.0
 11
135.9133914571663
 21
122.5288839892221
 31
0.0
  0
LINE
  5
21B
330
37
100
AcDbEntity
  8
Sichtbare Kanten(TC_020513_DIN)
100
AcDbLine
 10
137.5794028857505
 20
122.5288839892221
 30
0.0
 11
138.1170578007579
 21
122.5288839892221
 31
0.0
  0
LINE
  5
21C
330
37
100
AcDbEntity
  8
Sichtbare Kanten(TC_020513_DIN)
100
AcDbLine
 10
138.6170578007579
 20
122.5288839892221
 30
0.0
 11
138.1170578007579
 21
122.5288839892221
 31
0.0
  0
LINE
  5
21D
330
37
100
AcDbEntity
  8
Sichtbare Kanten(TC_020513_DIN)
100
AcDbLine
 10
138.1170578007579
 20
121.1288839892221
 30
0.0
 11
137.5794028857505
 21
121.1288839892221
 31
0.0
  0
LINE
  5
21E
330
37
100
AcDbEntity
  8
Sichtbare Kanten(TC_020513_DIN)
100
AcDbLine
 10
138.1170578007579
 20
121.1288839892221
 30
0.0
 11
138.6170578007579
 21
121.1288839892221
 31
0.0
  0
LINE
  5
21F
330
37
100
AcDbEntity
  8
Sichtbare Kanten(TC_020513_DIN)
100
AcDbLine
 10
138.6170578007579
 20
122.5288839892221
 30
0.0
 11
138.6170578007579
 21
121.1288839892221
 31
0.0
  0
LINE
  5
220
330
37
100
AcDbEntity
  8
Sichtbare Kanten(TC_020513_DIN)
100
AcDbLine
 10
122.4671852412759
 20
137.3840160778532
 30
0.0
 11
120.838639588474
 21
131.8756449076041
 31
0.0
  0
ELLIPSE
  5
221
330
37
100
AcDbEntity
  8
Sichtbare Kanten(TC_020513_DIN)
100
AcDbEllipse
 10
118.9067879358958
 20
132.3447843396237
 30
0.0
 11
2.0
 21
0.0000000000000067
 31
0.0
210
0.0
220
0.0
230
1.0
 40
0.9063077870366489
 41
4.712388980384677
 42
6.021385919380433
  0
ARC
  5
222
330
37
100
AcDbEntity
  8
Sichtbare Kanten(TC_020513_DIN)
100
AcDbCircle
 10
72.34604018834128
 20
149.6275242392246
 30
0.0
 40
1.499999999999996
100
AcDbArc
 50
270.0
 51
313.7601210290161
  0
LINE
  5
223
330
37
100
AcDbEntity
  8
Sichtbare Kanten(TC_020513_DIN)
100
AcDbLine
 10
67.45685476700583
 20
148.1275242392246
 30
0.0
 11
72.34604018834128
 21
148.1275242392246
 31
0.0
  0
ARC
  5
224
330
37
100
AcDbEntity
  8
Sichtbare Kanten(TC_020513_DIN)
100
AcDbCircle
 10
67.45685476700583
 20
149.1275242392246
 30
0.0
 40
1.000000000000004
100
AcDbArc
 50
220.0000000000004
 51
270.0
  0
LINE
  5
225
330
37
100
AcDbEntity
  8
Sichtbare Kanten(TC_020513_DIN)
100
AcDbLine
 10
65.61208463146025
 20
149.7703118489111
 30
0.0
 11
66.69081032388686
 21
148.484736629538
 31
0.0
  0
ARC
  5
226
330
37
100
AcDbEntity
  8
Sichtbare Kanten(TC_020513_DIN)
100
AcDbCircle
 10
64.84604018834128
 20
149.1275242392246
 30
0.0
 40
0.9999999999999943
100
AcDbArc
 50
39.9999999999996
 51
90.0
  0
LINE
  5
227
330
37
100
AcDbEntity
  8
Sichtbare Kanten(TC_020513_DIN)
100
AcDbLine
 10
62.87940288575054
 20
150.1275242392246
 30
0.0
 11
64.84604018834128
 21
150.1275242392246
 31
0.0
  0
LINE
  5
228
330
37
100
AcDbEntity
  8
Sichtbare Kanten(TC_020513_DIN)
100
AcDbLine
 10
72.3460401883413
 20
140.1275242392246
 30
0.0
 11
62.87940288575054
 21
140.1275242392246
 31
0.0
  0
ARC
  5
229
330
37
100
AcDbEntity
  8
Sichtbare Kanten(TC_020513_DIN)
100
AcDbCircle
 10
72.34604018834129
 20
139.8775242392246
 30
0.0
 40
0.2500000000000029
100
AcDbArc
 50
14.99999999999857
 51
89.99999999999797
  0
LINE
  5
22A
330
37
100
AcDbEntity
  8
Sichtbare Kanten(TC_020513_DIN)
100
AcDbLine
 10
72.9559201101715
 20
138.5673472107272
 30
0.0
 11
72.58752164491356
 21
139.9422290005002
 31
0.0
  0
LINE
  5
22B
330
37
100
AcDbEntity
  8
Sichtbare Kanten(TC_020513_DIN)
100
AcDbLine
 10
60.07940288575053
 20
122.7665389042295
 30
0.0
 11
60.07940288575053
 21
122.6288839892221
 31
0.0
  0
LINE
  5
22C
330
37
100
AcDbEntity
  8
Sichtbare Kanten(TC_020513_DIN)
100
AcDbLine
 10
60.07940288575053
 20
122.7665389042295
 30
0.0
 11
60.07940288575053
 21
130.9821372195006
 31
0.0
  0
LINE
  5
22D
330
37
100
AcDbEntity
  8
Sichtbare Kanten(TC_020513_DIN)
100
AcDbLine
 10
60.07940288575053
 20
135.8101167756033
 30
0.0
 11
60.07940288575053
 21
130.9821372195006
 31
0.0
  0
LINE
  5
22E
330
37
100
AcDbEntity
  8
Sichtbare Kanten(TC_020513_DIN)
100
AcDbLine
 10
60.07940288575053
 20
136.1586886673224
 30
0.0
 11
60.07940288575053
 21
135.8101167756033
 31
0.0
  0
LINE
  5
22F
330
37
100
AcDbEntity
  8
Sichtbare Kanten(TC_020513_DIN)
100
AcDbLine
 10
60.07940288575053
 20
140.1275242392246
 30
0.0
 11
60.07940288575053
 21
136.1586886673224
 31
0.0
  0
LINE
  5
230
330
37
100
AcDbEntity
  8
Sichtbare Kanten(TC_020513_DIN)
100
AcDbLine
 10
60.07940288575053
 20
152.6100001730196
 30
0.0
 11
60.07940288575053
 21
150.562780488421
 31
0.0
  0
LINE
  5
231
330
37
100
AcDbEntity
  8
Sichtbare Kanten(TC_020513_DIN)
100
AcDbLine
 10
60.07940288575053
 20
152.6100001730196
 30
0.0
 11
60.07940288575053
 21
157.7665389042295
 31
0.0
  0
LINE
  5
232
330
37
100
AcDbEntity
  8
Sichtbare Kanten(TC_020513_DIN)
100
AcDbLine
 10
61.47940288575052
 20
157.7665389042295
 30
0.0
 11
61.47940288575052
 21
152.6100001730196
 31
0.0
  0
LINE
  5
233
330
37
100
AcDbEntity
  8
Sichtbare Kanten(TC_020513_DIN)
100
AcDbLine
 10
61.47940288575052
 20
150.562780488421
 30
0.0
 11
61.47940288575053
 21
152.6100001730196
 31
0.0
  0
LINE
  5
234
330
37
100
AcDbEntity
  8
Sichtbare Kanten(TC_020513_DIN)
100
AcDbLine
 10
61.47940288575053
 20
136.1586886673224
 30
0.0
 11
61.47940288575053
 21
140.1275242392246
 31
0.0
  0
LINE
  5
235
330
37
100
AcDbEntity
  8
Sichtbare Kanten(TC_020513_DIN)
100
AcDbLine
 10
61.47940288575052
 20
135.8101167756033
 30
0.0
 11
61.47940288575052
 21
136.1586886673224
 31
0.0
  0
LINE
  5
236
330
37
100
AcDbEntity
  8
Sichtbare Kanten(TC_020513_DIN)
100
AcDbLine
 10
61.47940288575053
 20
130.9821372195006
 30
0.0
 11
61.47940288575053
 21
135.8101167756033
 31
0.0
  0
LINE
  5
237
330
37
100
AcDbEntity
  8
Sichtbare Kanten(TC_020513_DIN)
100
AcDbLine
 10
61.47940288575052
 20
130.9821372195006
 30
0.0
 11
61.47940288575052
 21
122.7665389042295
 31
0.0
  0
LINE
  5
238
330
37
100
AcDbEntity
  8
Sichtbare Kanten(TC_020513_DIN)
100
AcDbLine
 10
61.47940288575052
 20
122.6288839892221
 30
0.0
 11
61.47940288575053
 21
122.7665389042295
 31
0.0
  0
LINE
  5
239
330
37
100
AcDbEntity
  8
Sichtbare Kanten(TC_020513_DIN)
100
AcDbLine
 10
60.07940288575053
 20
122.7665389042295
 30
0.0
 11
61.47940288575053
 21
122.7665389042295
 31
0.0
  0
LINE
  5
23A
330
37
100
AcDbEntity
  8
Sichtbare Kanten(TC_020513_DIN)
100
AcDbLine
 10
60.07940288575053
 20
157.7665389042295
 30
0.0
 11
61.47940288575053
 21
157.7665389042295
 31
0.0
  0
LINE
  5
23B
330
37
100
AcDbEntity
  8
Sichtbare Kanten(TC_020513_DIN)
100
AcDbLine
 10
75.77932491800073
 20
151.3441615418153
 30
0.0
 11
77.71117657057887
 21
151.3441615418153
 31
0.0
  0
LINE
  5
23C
330
37
100
AcDbEntity
  8
Sichtbare Kanten(TC_020513_DIN)
100
AcDbLine
 10
77.71117657057887
 20
149.9441615418153
 30
0.0
 11
75.77932491800073
 21
149.9441615418153
 31
0.0
  0
LINE
  5
23D
330
37
100
AcDbEntity
  8
Sichtbare Kanten(TC_020513_DIN)
100
AcDbLine
 10
74.45718981126834
 20
149.9441615418153
 30
0.0
 11
75.77932491800075
 21
149.9441615418153
 31
0.0
  0
LINE
  5
23E
330
37
100
AcDbEntity
  8
Sichtbare Kanten(TC_020513_DIN)
100
AcDbLine
 10
75.77932491800074
 20
151.3441615418153
 30
0.0
 11
74.45718981126834
 21
151.3441615418153
 31
0.0
  0
LINE
  5
23F
330
37
100
AcDbEntity
  8
Sichtbare Kanten(TC_020513_DIN)
100
AcDbLine
 10
59.97940288575055
 20
122.5288839892221
 30
0.0
 11
59.74541431433471
 21
122.5288839892221
 31
0.0
  0
LINE
  5
240
330
37
100
AcDbEntity
  8
Sichtbare Kanten(TC_020513_DIN)
100
AcDbLine
 10
58.07940288575053
 20
122.5288839892221
 30
0.0
 11
57.54174797074312
 21
122.5288839892221
 31
0.0
  0
LINE
  5
241
330
37
100
AcDbEntity
  8
Sichtbare Kanten(TC_020513_DIN)
100
AcDbLine
 10
57.54174797074312
 20
121.1288839892221
 30
0.0
 11
58.07940288575053
 21
121.1288839892221
 31
0.0
  0
LINE
  5
242
330
37
100
AcDbEntity
  8
Sichtbare Kanten(TC_020513_DIN)
100
AcDbLine
 10
57.54174797074312
 20
121.1288839892221
 30
0.0
 11
57.0417479707431
 21
121.1288839892221
 31
0.0
  0
LINE
  5
243
330
37
100
AcDbEntity
  8
Sichtbare Kanten(TC_020513_DIN)
100
AcDbLine
 10
57.0417479707431
 20
122.5288839892221
 30
0.0
 11
57.54174797074312
 21
122.5288839892221
 31
0.0
  0
LINE
  5
244
330
37
100
AcDbEntity
  8
Sichtbare Kanten(TC_020513_DIN)
100
AcDbLine
 10
57.04174797074312
 20
122.5288839892221
 30
0.0
 11
57.04174797074312
 21
121.1288839892221
 31
0.0
  0
ELLIPSE
  5
245
330
37
100
AcDbEntity
  8
Sichtbare Kanten(TC_020513_DIN)
100
AcDbEllipse
 10
76.75201783560519
 20
132.3447843396237
 30
0.0
 11
-2.0
 21
-0.0000000000000023
 31
0.0
210
0.0
220
0.0
230
1.0
 40
0.9063077870366489
 41
0.2617993877991491
 42
1.570796326794895
  0
ELLIPSE
  5
246
330
37
100
AcDbEntity
  8
Sichtbare Kanten(TC_020513_DIN)
100
AcDbEllipse
 10
76.75201783560519
 20
132.9364499060606
 30
0.0
 11
-1.999999999999997
 21
0.0000000000000008
 31
0.0
210
0.0
220
0.0
230
1.0
 40
0.9063077870366488
 41
0.2617993877991509
 42
1.570796326794896
  0
LINE
  5
247
330
37
100
AcDbEntity
  8
Sichtbare Kanten(TC_020513_DIN)
100
AcDbLine
 10
73.19162053022505
 20
137.3840160778532
 30
0.0
 11
74.82016618302705
 21
131.8756449076041
 31
0.0
  0
LINE
  5
248
330
37
100
AcDbEntity
  8
Sichtbare Kanten(TC_020513_DIN)
100
AcDbLine
 10
74.82016618302705
 20
132.4673104740411
 30
0.0
 11
73.19162053022505
 21
137.9756816442902
 31
0.0
  0
LINE
  5
249
330
37
100
AcDbEntity
  8
Sichtbare Kanten(TC_020513_DIN)
100
AcDbLine
 10
117.9476292009222
 20
149.9441615418153
 30
0.0
 11
77.71117657057887
 21
149.9441615418153
 31
0.0
  0
LINE
  5
24A
330
37
100
AcDbEntity
  8
Sichtbare Kanten(TC_020513_DIN)
100
AcDbLine
 10
117.9476292009222
 20
151.3441615418153
 30
0.0
 11
77.71117657057887
 21
151.3441615418153
 31
0.0
  0
LINE
  5
24B
330
37
100
AcDbEntity
  8
Sichtbare Kanten(TC_020513_DIN)
100
AcDbLine
 10
76.75201783560519
 20
131.1238343319873
 30
0.0
 11
118.9067879358958
 21
131.1238343319873
 31
0.0
  0
LINE
  5
24C
330
37
100
AcDbEntity
  8
Sichtbare Kanten(TC_020513_DIN)
100
AcDbLine
 10
118.9067879358958
 20
130.5321687655504
 30
0.0
 11
76.75201783560519
 21
130.5321687655504
 31
0.0
  0
POLYLINE
  5
24D
330
37
100
AcDbEntity
  8
Sichtbare Kanten(TC_020513_DIN)
100
AcDb2dPolyline
 66
     1
 10
0.0
 20
0.0
 30
0.0
 70
   128
  0
VERTEX
  5
24E
330
24D
100
AcDbEntity
  8
Sichtbare Kanten(TC_020513_DIN)
100
AcDbVertex
100
AcDb2dVertex
 10
73.19162031205056
 20
137.3840159635938
 30
0.0
  0
VERTEX
  5
24F
330
24D
100
AcDbEntity
  8
Sichtbare Kanten(TC_020513_DIN)
100
AcDbVertex
100
AcDb2dVertex
 10
73.18179269822
 20
137.4303803306021
 30
0.0
  0
VERTEX
  5
251
330
24D
100
AcDbEntity
  8
Sichtbare Kanten(TC_020513_DIN)
100
AcDbVertex
100
AcDb2dVertex
 10
73.17196746857522
 20
137.4771014314092
 30
0.0
  0
VERTEX
  5
252
330
24D
100
AcDbEntity
  8
Sichtbare Kanten(TC_020513_DIN)
100
AcDbVertex
100
AcDb2dVertex
 10
73.16214700730203
 20
137.5241676431097
 30
0.0
  0
VERTEX
  5
253
330
24D
100
AcDbEntity
  8
Sichtbare Kanten(TC_020513_DIN)
100
AcDbVertex
100
AcDb2dVertex
 10
73.15232893021462
 20
137.5715667467512
 30
0.0
  0
VERTEX
  5
254
330
24D
100
AcDbEntity
  8
Sichtbare Kanten(TC_020513_DIN)
100
AcDbVertex
100
AcDb2dVertex
 10
73.14251085312722
 20
137.619287119428
 30
0.0
  0
VERTEX
  5
255
330
24D
100
AcDbEntity
  8
Sichtbare Kanten(TC_020513_DIN)
100
AcDbVertex
100
AcDb2dVertex
 10
73.13269516022561
 20
137.6673168402113
 30
0.0
  0
VERTEX
  5
256
330
24D
100
AcDbEntity
  8
Sichtbare Kanten(TC_020513_DIN)
100
AcDbVertex
100
AcDb2dVertex
 10
73.122879467324
 20
137.7156433921255
 30
0.0
  0
VERTEX
  5
257
330
24D
100
AcDbEntity
  8
Sichtbare Kanten(TC_020513_DIN)
100
AcDbVertex
100
AcDb2dVertex
 10
73.1130613902366
 20
137.7642554502882
 30
0.0
  0
VERTEX
  5
258
330
24D
100
AcDbEntity
  8
Sichtbare Kanten(TC_020513_DIN)
100
AcDbVertex
100
AcDb2dVertex
 10
73.10324331314919
 20
137.8131407957472
 30
0.0
  0
VERTEX
  5
259
330
24D
100
AcDbEntity
  8
Sichtbare Kanten(TC_020513_DIN)
100
AcDbVertex
100
AcDb2dVertex
 10
73.093422851876
 20
137.8622872095503
 30
0.0
  0
VERTEX
  5
25A
330
24D
100
AcDbEntity
  8
Sichtbare Kanten(TC_020513_DIN)
100
AcDbVertex
100
AcDb2dVertex
 10
73.08359762223123
 20
137.9116827707685
 30
0.0
  0
VERTEX
  5
25B
330
24D
100
AcDbEntity
  8
Sichtbare Kanten(TC_020513_DIN)
100
AcDbVertex
100
AcDb2dVertex
 10
73.07377000840066
 20
137.9613161545194
 30
0.0
  0
VERTEX
  5
25C
330
24D
100
AcDbEntity
  8
Sichtbare Kanten(TC_020513_DIN)
100
AcDbVertex
100
AcDb2dVertex
 10
73.06394239457009
 20
138.0111504059232
 30
0.0
  0
VERTEX
  5
25D
330
24D
100
AcDbEntity
  8
Sichtbare Kanten(TC_020513_DIN)
100
AcDbVertex
100
AcDb2dVertex
 10
73.05411716492532
 20
138.0611473780073
 30
0.0
  0
VERTEX
  5
25E
330
24D
100
AcDbEntity
  8
Sichtbare Kanten(TC_020513_DIN)
100
AcDbVertex
100
AcDb2dVertex
 10
73.04429670365212
 20
138.1112957458891
 30
0.0
  0
VERTEX
  5
25F
330
24D
100
AcDbEntity
  8
Sichtbare Kanten(TC_020513_DIN)
100
AcDbVertex
100
AcDb2dVertex
 10
73.03447862656472
 20
138.1615823965467
 30
0.0
  0
VERTEX
  5
260
330
24D
100
AcDbEntity
  8
Sichtbare Kanten(TC_020513_DIN)
100
AcDbVertex
100
AcDb2dVertex
 10
73.02466054947732
 20
138.2119942169584
 30
0.0
  0
VERTEX
  5
261
330
24D
100
AcDbEntity
  8
Sichtbare Kanten(TC_020513_DIN)
100
AcDbVertex
100
AcDb2dVertex
 10
73.01484485657571
 20
138.2625198822416
 30
0.0
  0
VERTEX
  5
262
330
24D
100
AcDbEntity
  8
Sichtbare Kanten(TC_020513_DIN)
100
AcDbVertex
100
AcDb2dVertex
 10
73.0050291636741
 20
138.3131462793745
 30
0.0
  0
VERTEX
  5
263
330
24D
100
AcDbEntity
  8
Sichtbare Kanten(TC_020513_DIN)
100
AcDbVertex
100
AcDb2dVertex
 10
72.99521108658669
 20
138.3638602953352
 30
0.0
  0
VERTEX
  5
264
330
24D
100
AcDbEntity
  8
Sichtbare Kanten(TC_020513_DIN)
100
AcDbVertex
100
AcDb2dVertex
 10
72.98539300949929
 20
138.4146500091947
 30
0.0
  0
VERTEX
  5
265
330
24D
100
AcDbEntity
  8
Sichtbare Kanten(TC_020513_DIN)
100
AcDbVertex
100
AcDb2dVertex
 10
72.9755725482261
 20
138.4655029039778
 30
0.0
  0
VERTEX
  5
266
330
24D
100
AcDbEntity
  8
Sichtbare Kanten(TC_020513_DIN)
100
AcDbVertex
100
AcDb2dVertex
 10
72.96574731858132
 20
138.5164058666624
 30
0.0
  0
VERTEX
  5
267
330
24D
100
AcDbEntity
  8
Sichtbare Kanten(TC_020513_DIN)
100
AcDbVertex
100
AcDb2dVertex
 10
72.95591970475076
 20
138.5673469763197
 30
0.0
  0
SEQEND
  5
250
330
24D
100
AcDbEntity
  8
Sichtbare Kanten(TC_020513_DIN)
  0
LINE
  5
268
330
37
100
AcDbEntity
  8
Sichtbare Kanten(TC_020513_DIN)
100
AcDbLine
 10
73.19162053022505
 20
137.7153471667367
 30
0.0
 11
73.19162053022505
 21
137.3840160778532
 31
0.0
  0
LINE
  5
269
330
37
100
AcDbEntity
  8
Sichtbare Kanten(TC_020513_DIN)
100
AcDbLine
 10
73.19162053022505
 20
137.9756816442902
 30
0.0
 11
73.19162053022505
 21
137.7153471667367
 31
0.0
  0
POLYLINE
  5
26A
330
37
100
AcDbEntity
  8
Sichtbare Kanten(TC_020513_DIN)
100
AcDb2dPolyline
 66
     1
 10
0.0
 20
0.0
 30
0.0
 70
   128
  0
VERTEX
  5
26B
330
26A
100
AcDbEntity
  8
Sichtbare Kanten(TC_020513_DIN)
100
AcDbVertex
100
AcDb2dVertex
 10
72.95591970475076
 20
138.5673469763197
 30
0.0
  0
VERTEX
  5
26C
330
26A
100
AcDbEntity
  8
Sichtbare Kanten(TC_020513_DIN)
100
AcDbVertex
100
AcDb2dVertex
 10
72.96574731858132
 20
138.5418767195143
 30
0.0
  0
VERTEX
  5
26E
330
26A
100
AcDbEntity
  8
Sichtbare Kanten(TC_020513_DIN)
100
AcDbVertex
100
AcDb2dVertex
 10
72.9755725482261
 20
138.5164249401487
 30
0.0
  0
VERTEX
  5
26F
330
26A
100
AcDbEntity
  8
Sichtbare Kanten(TC_020513_DIN)
100
AcDbVertex
100
AcDb2dVertex
 10
72.98539300949929
 20
138.4909987907804
 30
0.0
  0
VERTEX
  5
270
330
26A
100
AcDbEntity
  8
Sichtbare Kanten(TC_020513_DIN)
100
AcDbVertex
100
AcDb2dVertex
 10
72.99521108658669
 20
138.4656036358274
 30
0.0
  0
VERTEX
  5
271
330
26A
100
AcDbEntity
  8
Sichtbare Kanten(TC_020513_DIN)
100
AcDbVertex
100
AcDb2dVertex
 10
73.0050291636741
 20
138.4402466278471
 30
0.0
  0
VERTEX
  5
272
330
26A
100
AcDbEntity
  8
Sichtbare Kanten(TC_020513_DIN)
100
AcDbVertex
100
AcDb2dVertex
 10
73.01484485657571
 20
138.4149337273039
 30
0.0
  0
VERTEX
  5
273
330
26A
100
AcDbEntity
  8
Sichtbare Kanten(TC_020513_DIN)
100
AcDbVertex
100
AcDb2dVertex
 10
73.02466054947732
 20
138.3896708946623
 30
0.0
  0
VERTEX
  5
274
330
26A
100
AcDbEntity
  8
Sichtbare Kanten(TC_020513_DIN)
100
AcDbVertex
100
AcDb2dVertex
 10
73.03447862656472
 20
138.3644646864332
 30
0.0
  0
VERTEX
  5
275
330
26A
100
AcDbEntity
  8
Sichtbare Kanten(TC_020513_DIN)
100
AcDbVertex
100
AcDb2dVertex
 10
73.04429670365212
 20
138.3393216591276
 30
0.0
  0
VERTEX
  5
276
330
26A
100
AcDbEntity
  8
Sichtbare Kanten(TC_020513_DIN)
100
AcDbVertex
100
AcDb2dVertex
 10
73.05411716492532
 20
138.3142471771635
 30
0.0
  0
VERTEX
  5
277
330
26A
100
AcDbEntity
  8
Sichtbare Kanten(TC_020513_DIN)
100
AcDbVertex
100
AcDb2dVertex
 10
73.06394239457009
 20
138.2892489891447
 30
0.0
  0
VERTEX
  5
278
330
26A
100
AcDbEntity
  8
Sichtbare Kanten(TC_020513_DIN)
100
AcDbVertex
100
AcDb2dVertex
 10
73.07377000840066
 20
138.2643318634428
 30
0.0
  0
VERTEX
  5
279
330
26A
100
AcDbEntity
  8
Sichtbare Kanten(TC_020513_DIN)
100
AcDbVertex
100
AcDb2dVertex
 10
73.08359762223123
 20
138.2395148735441
 30
0.0
  0
VERTEX
  5
27A
330
26A
100
AcDbEntity
  8
Sichtbare Kanten(TC_020513_DIN)
100
AcDbVertex
100
AcDb2dVertex
 10
73.093422851876
 20
138.214817092935
 30
0.0
  0
VERTEX
  5
27B
330
26A
100
AcDbEntity
  8
Sichtbare Kanten(TC_020513_DIN)
100
AcDbVertex
100
AcDb2dVertex
 10
73.10324331314919
 20
138.1902438860334
 30
0.0
  0
VERTEX
  5
27C
330
26A
100
AcDbEntity
  8
Sichtbare Kanten(TC_020513_DIN)
100
AcDbVertex
100
AcDb2dVertex
 10
73.1130613902366
 20
138.1658012133039
 30
0.0
  0
VERTEX
  5
27D
330
26A
100
AcDbEntity
  8
Sichtbare Kanten(TC_020513_DIN)
100
AcDbVertex
100
AcDb2dVertex
 10
73.122879467324
 20
138.141495035211
 30
0.0
  0
VERTEX
  5
27E
330
26A
100
AcDbEntity
  8
Sichtbare Kanten(TC_020513_DIN)
100
AcDbVertex
100
AcDb2dVertex
 10
73.13269516022561
 20
138.1173319082655
 30
0.0
  0
VERTEX
  5
27F
330
26A
100
AcDbEntity
  8
Sichtbare Kanten(TC_020513_DIN)
100
AcDbVertex
100
AcDb2dVertex
 10
73.14251085312722
 20
138.0933171968855
 30
0.0
  0
VERTEX
  5
280
330
26A
100
AcDbEntity
  8
Sichtbare Kanten(TC_020513_DIN)
100
AcDbVertex
100
AcDb2dVertex
 10
73.15232893021462
 20
138.0694568615354
 30
0.0
  0
VERTEX
  5
281
330
26A
100
AcDbEntity
  8
Sichtbare Kanten(TC_020513_DIN)
100
AcDbVertex
100
AcDb2dVertex
 10
73.16214700730203
 20
138.0457574587263
 30
0.0
  0
VERTEX
  5
282
330
26A
100
AcDbEntity
  8
Sichtbare Kanten(TC_020513_DIN)
100
AcDbVertex
100
AcDb2dVertex
 10
73.17196746857522
 20
138.0222243528761
 30
0.0
  0
VERTEX
  5
283
330
26A
100
AcDbEntity
  8
Sichtbare Kanten(TC_020513_DIN)
100
AcDbVertex
100
AcDb2dVertex
 10
73.18179269822
 20
137.9988635044492
 30
0.0
  0
VERTEX
  5
284
330
26A
100
AcDbEntity
  8
Sichtbare Kanten(TC_020513_DIN)
100
AcDbVertex
100
AcDb2dVertex
 10
73.19162031205056
 20
137.9756814699568
 30
0.0
  0
SEQEND
  5
26D
330
26A
100
AcDbEntity
  8
Sichtbare Kanten(TC_020513_DIN)
  0
ARC
  5
285
330
37
100
AcDbEntity
  8
Sichtbare Kanten(TC_020513_DIN)
100
AcDbCircle
 10
59.97940288575053
 20
122.6288839892221
 30
0.0
 40
0.1000000000000023
100
AcDbArc
 50
270.0000000000102
 51
0.0
  0
ARC
  5
286
330
37
100
AcDbEntity
  8
Sichtbare Kanten(TC_020513_DIN)
100
AcDbCircle
 10
59.9794028857505
 20
122.6288839892221
 30
0.0
 40
1.500000000000043
100
AcDbArc
 50
333.0858507981389
 51
0.0
  0
LINE
  5
287
330
37
100
AcDbEntity
  8
Sichtbare Kanten(TC_020513_DIN)
100
AcDbLine
 10
60.07940288575053
 20
140.1275242392246
 30
0.0
 11
60.07940288575053
 21
150.562780488421
 31
0.0
  0
POLYLINE
  5
288
330
37
100
AcDbEntity
  8
Sichtbare Kanten(TC_020513_DIN)
100
AcDb2dPolyline
 66
     1
 10
0.0
 20
0.0
 30
0.0
 70
   128
  0
VERTEX
  5
289
330
288
100
AcDbEntity
  8
Sichtbare Kanten(TC_020513_DIN)
100
AcDbVertex
100
AcDb2dVertex
 10
60.12141843827127
 20
150.3485191326536
 30
0.0
  0
VERTEX
  5
28A
330
288
100
AcDbEntity
  8
Sichtbare Kanten(TC_020513_DIN)
100
AcDbVertex
100
AcDb2dVertex
 10
60.11799951584695
 20
150.357447908441
 30
0.0
  0
VERTEX
  5
28C
330
288
100
AcDbEntity
  8
Sichtbare Kanten(TC_020513_DIN)
100
AcDbVertex
100
AcDb2dVertex
 10
60.1147212603843
 20
150.3663754921354
 30
0.0
  0
VERTEX
  5
28D
330
288
100
AcDbEntity
  8
Sichtbare Kanten(TC_020513_DIN)
100
AcDbVertex
100
AcDb2dVertex
 10
60.1115908244407
 20
150.3753030758299
 30
0.0
  0
VERTEX
  5
28E
330
288
100
AcDbEntity
  8
Sichtbare Kanten(TC_020513_DIN)
100
AcDbVertex
100
AcDb2dVertex
 10
60.10860343964456
 20
150.3842306595243
 30
0.0
  0
VERTEX
  5
28F
330
288
100
AcDbEntity
  8
Sichtbare Kanten(TC_020513_DIN)
100
AcDbVertex
100
AcDb2dVertex
 10
60.10576149018167
 20
150.3931570511259
 30
0.0
  0
VERTEX
  5
290
330
288
100
AcDbEntity
  8
Sichtbare Kanten(TC_020513_DIN)
100
AcDbVertex
100
AcDb2dVertex
 10
60.10306259186624
 20
150.4020846348203
 30
0.0
  0
VERTEX
  5
291
330
288
100
AcDbEntity
  8
Sichtbare Kanten(TC_020513_DIN)
100
AcDbVertex
100
AcDb2dVertex
 10
60.10051151306985
 20
150.4110110264219
 30
0.0
  0
VERTEX
  5
292
330
288
100
AcDbEntity
  8
Sichtbare Kanten(TC_020513_DIN)
100
AcDbVertex
100
AcDb2dVertex
 10
60.09810348542092
 20
150.4199386101164
 30
0.0
  0
VERTEX
  5
293
330
288
100
AcDbEntity
  8
Sichtbare Kanten(TC_020513_DIN)
100
AcDbVertex
100
AcDb2dVertex
 10
60.09584089310525
 20
150.4288650017179
 30
0.0
  0
VERTEX
  5
294
330
288
100
AcDbEntity
  8
Sichtbare Kanten(TC_020513_DIN)
100
AcDbVertex
100
AcDb2dVertex
 10
60.09372373612283
 20
150.4377925854124
 30
0.0
  0
VERTEX
  5
295
330
288
100
AcDbEntity
  8
Sichtbare Kanten(TC_020513_DIN)
100
AcDbVertex
100
AcDb2dVertex
 10
60.09175201447366
 20
150.4467213611997
 30
0.0
  0
VERTEX
  5
296
330
288
100
AcDbEntity
  8
Sichtbare Kanten(TC_020513_DIN)
100
AcDbVertex
100
AcDb2dVertex
 10
60.08992572815774
 20
150.4556501369871
 30
0.0
  0
VERTEX
  5
297
330
288
100
AcDbEntity
  8
Sichtbare Kanten(TC_020513_DIN)
100
AcDbVertex
100
AcDb2dVertex
 10
60.08824726136086
 20
150.4645777206816
 30
0.0
  0
VERTEX
  5
298
330
288
100
AcDbEntity
  8
Sichtbare Kanten(TC_020513_DIN)
100
AcDbVertex
100
AcDb2dVertex
 10
60.08671184571145
 20
150.4735064964689
 30
0.0
  0
VERTEX
  5
299
330
288
100
AcDbEntity
  8
Sichtbare Kanten(TC_020513_DIN)
100
AcDbVertex
100
AcDb2dVertex
 10
60.08532424958108
 20
150.4824340801634
 30
0.0
  0
VERTEX
  5
29A
330
288
100
AcDbEntity
  8
Sichtbare Kanten(TC_020513_DIN)
100
AcDbVertex
100
AcDb2dVertex
 10
60.08408208878396
 20
150.4913616638578
 30
0.0
  0
VERTEX
  5
29B
330
288
100
AcDbEntity
  8
Sichtbare Kanten(TC_020513_DIN)
100
AcDbVertex
100
AcDb2dVertex
 10
60.08298536332009
 20
150.5002880554594
 30
0.0
  0
VERTEX
  5
29C
330
288
100
AcDbEntity
  8
Sichtbare Kanten(TC_020513_DIN)
100
AcDbVertex
100
AcDb2dVertex
 10
60.08203407318948
 20
150.5092156391538
 30
0.0
  0
VERTEX
  5
29D
330
288
100
AcDbEntity
  8
Sichtbare Kanten(TC_020513_DIN)
100
AcDbVertex
100
AcDb2dVertex
 10
60.08123060257791
 20
150.5181420307554
 30
0.0
  0
VERTEX
  5
29E
330
288
100
AcDbEntity
  8
Sichtbare Kanten(TC_020513_DIN)
100
AcDbVertex
100
AcDb2dVertex
 10
60.08057256729959
 20
150.527068422357
 30
0.0
  0
VERTEX
  5
29F
330
288
100
AcDbEntity
  8
Sichtbare Kanten(TC_020513_DIN)
100
AcDbVertex
100
AcDb2dVertex
 10
60.08005996735452
 20
150.5359960060514
 30
0.0
  0
VERTEX
  5
2A0
330
288
100
AcDbEntity
  8
Sichtbare Kanten(TC_020513_DIN)
100
AcDbVertex
100
AcDb2dVertex
 10
60.07969518692849
 20
150.5449235897459
 30
0.0
  0
VERTEX
  5
2A1
330
288
100
AcDbEntity
  8
Sichtbare Kanten(TC_020513_DIN)
100
AcDbVertex
100
AcDb2dVertex
 10
60.07947584183572
 20
150.5538523655332
 30
0.0
  0
VERTEX
  5
2A2
330
288
100
AcDbEntity
  8
Sichtbare Kanten(TC_020513_DIN)
100
AcDbVertex
100
AcDb2dVertex
 10
60.0794019320762
 20
150.5627799492277
 30
0.0
  0
SEQEND
  5
28B
330
288
100
AcDbEntity
  8
Sichtbare Kanten(TC_020513_DIN)
  0
POLYLINE
  5
2A3
330
37
100
AcDbEntity
  8
Sichtbare Kanten(TC_020513_DIN)
100
AcDb2dPolyline
 66
     1
 10
0.0
 20
0.0
 30
0.0
 70
   128
  0
VERTEX
  5
2A4
330
2A3
100
AcDbEntity
  8
Sichtbare Kanten(TC_020513_DIN)
100
AcDbVertex
100
AcDb2dVertex
 10
61.47940298111794
 20
150.5627799492277
 30
0.0
  0
VERTEX
  5
2A5
330
2A3
100
AcDbEntity
  8
Sichtbare Kanten(TC_020513_DIN)
100
AcDbVertex
100
AcDb2dVertex
 10
61.47943874390481
 20
150.5538523655332
 30
0.0
  0
VERTEX
  5
2A7
330
2A3
100
AcDbEntity
  8
Sichtbare Kanten(TC_020513_DIN)
100
AcDbVertex
100
AcDb2dVertex
 10
61.4795484164512
 20
150.5449235897459
 30
0.0
  0
VERTEX
  5
2A8
330
2A3
100
AcDbEntity
  8
Sichtbare Kanten(TC_020513_DIN)
100
AcDbVertex
100
AcDb2dVertex
 10
61.47973199875711
 20
150.5359960060514
 30
0.0
  0
VERTEX
  5
2A9
330
2A3
100
AcDbEntity
  8
Sichtbare Kanten(TC_020513_DIN)
100
AcDbVertex
100
AcDb2dVertex
 10
61.47998710663674
 20
150.527068422357
 30
0.0
  0
VERTEX
  5
2AA
330
2A3
100
AcDbEntity
  8
Sichtbare Kanten(TC_020513_DIN)
100
AcDbVertex
100
AcDb2dVertex
 10
61.4803161242759
 20
150.5181420307554
 30
0.0
  0
VERTEX
  5
2AB
330
2A3
100
AcDbEntity
  8
Sichtbare Kanten(TC_020513_DIN)
100
AcDbVertex
100
AcDb2dVertex
 10
61.48071905167459
 20
150.5092156391538
 30
0.0
  0
VERTEX
  5
2AC
330
2A3
100
AcDbEntity
  8
Sichtbare Kanten(TC_020513_DIN)
100
AcDbVertex
100
AcDb2dVertex
 10
61.481193504647
 20
150.5002880554594
 30
0.0
  0
VERTEX
  5
2AD
330
2A3
100
AcDbEntity
  8
Sichtbare Kanten(TC_020513_DIN)
100
AcDbVertex
100
AcDb2dVertex
 10
61.48174186737893
 20
150.4913616638578
 30
0.0
  0
VERTEX
  5
2AE
330
2A3
100
AcDbEntity
  8
Sichtbare Kanten(TC_020513_DIN)
100
AcDbVertex
100
AcDb2dVertex
 10
61.48236413987039
 20
150.4824340801634
 30
0.0
  0
VERTEX
  5
2AF
330
2A3
100
AcDbEntity
  8
Sichtbare Kanten(TC_020513_DIN)
100
AcDbVertex
100
AcDb2dVertex
 10
61.48305793793557
 20
150.4735064964689
 30
0.0
  0
VERTEX
  5
2B0
330
2A3
100
AcDbEntity
  8
Sichtbare Kanten(TC_020513_DIN)
100
AcDbVertex
100
AcDb2dVertex
 10
61.48382564576028
 20
150.4645777206816
 30
0.0
  0
VERTEX
  5
2B1
330
2A3
100
AcDbEntity
  8
Sichtbare Kanten(TC_020513_DIN)
100
AcDbVertex
100
AcDb2dVertex
 10
61.48466487915872
 20
150.4556501369871
 30
0.0
  0
VERTEX
  5
2B2
330
2A3
100
AcDbEntity
  8
Sichtbare Kanten(TC_020513_DIN)
100
AcDbVertex
100
AcDb2dVertex
 10
61.48557802231668
 20
150.4467213611997
 30
0.0
  0
VERTEX
  5
2B3
330
2A3
100
AcDbEntity
  8
Sichtbare Kanten(TC_020513_DIN)
100
AcDbVertex
100
AcDb2dVertex
 10
61.48656269104836
 20
150.4377925854124
 30
0.0
  0
VERTEX
  5
2B4
330
2A3
100
AcDbEntity
  8
Sichtbare Kanten(TC_020513_DIN)
100
AcDbVertex
100
AcDb2dVertex
 10
61.48762126953958
 20
150.4288650017179
 30
0.0
  0
VERTEX
  5
2B5
330
2A3
100
AcDbEntity
  8
Sichtbare Kanten(TC_020513_DIN)
100
AcDbVertex
100
AcDb2dVertex
 10
61.48875375779031
 20
150.4199386101164
 30
0.0
  0
VERTEX
  5
2B6
330
2A3
100
AcDbEntity
  8
Sichtbare Kanten(TC_020513_DIN)
100
AcDbVertex
100
AcDb2dVertex
 10
61.48995777161477
 20
150.4110110264219
 30
0.0
  0
VERTEX
  5
2B7
330
2A3
100
AcDbEntity
  8
Sichtbare Kanten(TC_020513_DIN)
100
AcDbVertex
100
AcDb2dVertex
 10
61.49123331101296
 20
150.4020846348203
 30
0.0
  0
VERTEX
  5
2B8
330
2A3
100
AcDbEntity
  8
Sichtbare Kanten(TC_020513_DIN)
100
AcDbVertex
100
AcDb2dVertex
 10
61.49258276017068
 20
150.3931570511259
 30
0.0
  0
VERTEX
  5
2B9
330
2A3
100
AcDbEntity
  8
Sichtbare Kanten(TC_020513_DIN)
100
AcDbVertex
100
AcDb2dVertex
 10
61.49400373490212
 20
150.3842306595243
 30
0.0
  0
VERTEX
  5
2BA
330
2A3
100
AcDbEntity
  8
Sichtbare Kanten(TC_020513_DIN)
100
AcDbVertex
100
AcDb2dVertex
 10
61.4954962352073
 20
150.3753030758299
 30
0.0
  0
VERTEX
  5
2BB
330
2A3
100
AcDbEntity
  8
Sichtbare Kanten(TC_020513_DIN)
100
AcDbVertex
100
AcDb2dVertex
 10
61.497062645272
 20
150.3663754921354
 30
0.0
  0
VERTEX
  5
2BC
330
2A3
100
AcDbEntity
  8
Sichtbare Kanten(TC_020513_DIN)
100
AcDbVertex
100
AcDb2dVertex
 10
61.49870058091043
 20
150.357447908441
 30
0.0
  0
VERTEX
  5
2BD
330
2A3
100
AcDbEntity
  8
Sichtbare Kanten(TC_020513_DIN)
100
AcDbVertex
100
AcDb2dVertex
 10
61.50041004212258
 20
150.3485191326536
 30
0.0
  0
SEQEND
  5
2A6
330
2A3
100
AcDbEntity
  8
Sichtbare Kanten(TC_020513_DIN)
  0
LINE
  5
2BE
330
37
100
AcDbEntity
  8
Sichtbare Kanten(TC_020513_DIN)
100
AcDbLine
 10
60.86340097297142
 20
150.562780488421
 30
0.0
 11
61.47940288575052
 21
150.562780488421
 31
0.0
  0
LINE
  5
2BF
330
37
100
AcDbEntity
  8
Sichtbare Kanten(TC_020513_DIN)
100
AcDbLine
 10
60.07940288575053
 20
150.562780488421
 30
0.0
 11
60.86340097297142
 21
150.562780488421
 31
0.0
  0
POLYLINE
  5
2C0
330
37
100
AcDbEntity
  8
Sichtbare Kanten(TC_020513_DIN)
100
AcDb2dPolyline
 66
     1
 10
0.0
 20
0.0
 30
0.0
 70
   128
  0
VERTEX
  5
2C1
330
2C0
100
AcDbEntity
  8
Sichtbare Kanten(TC_020513_DIN)
100
AcDbVertex
100
AcDb2dVertex
 10
60.51034351380227
 20
150.1275241833128
 30
0.0
  0
VERTEX
  5
2C2
330
2C0
100
AcDbEntity
  8
Sichtbare Kanten(TC_020513_DIN)
100
AcDbVertex
100
AcDb2dVertex
 10
60.48092504532693
 20
150.1280630093015
 30
0.0
  0
VERTEX
  5
2C4
330
2C0
100
AcDbEntity
  8
Sichtbare Kanten(TC_020513_DIN)
100
AcDbVertex
100
AcDb2dVertex
 10
60.45250316651223
 20
150.1296830635465
 30
0.0
  0
VERTEX
  5
2C5
330
2C0
100
AcDbEntity
  8
Sichtbare Kanten(TC_020513_DIN)
100
AcDbVertex
100
AcDb2dVertex
 10
60.42508741410134
 20
150.1323891144194
 30
0.0
  0
VERTEX
  5
2C6
330
2C0
100
AcDbEntity
  8
Sichtbare Kanten(TC_020513_DIN)
100
AcDbVertex
100
AcDb2dVertex
 10
60.39868732483743
 20
150.1361859302915
 30
0.0
  0
VERTEX
  5
2C7
330
2C0
100
AcDbEntity
  8
Sichtbare Kanten(TC_020513_DIN)
100
AcDbVertex
100
AcDb2dVertex
 10
60.37331243546365
 20
150.1410758953489
 30
0.0
  0
VERTEX
  5
2C8
330
2C0
100
AcDbEntity
  8
Sichtbare Kanten(TC_020513_DIN)
100
AcDbVertex
100
AcDb2dVertex
 10
60.34897466690896
 20
150.1470649700559
 30
0.0
  0
VERTEX
  5
2C9
330
2C0
100
AcDbEntity
  8
Sichtbare Kanten(TC_020513_DIN)
100
AcDbVertex
100
AcDb2dVertex
 10
60.32568117173074
 20
150.1541567306913
 30
0.0
  0
VERTEX
  5
2CA
330
2C0
100
AcDbEntity
  8
Sichtbare Kanten(TC_020513_DIN)
100
AcDbVertex
100
AcDb2dVertex
 10
60.30344387085794
 20
150.1623559456266
 30
0.0
  0
VERTEX
  5
2CB
330
2C0
100
AcDbEntity
  8
Sichtbare Kanten(TC_020513_DIN)
100
AcDbVertex
100
AcDb2dVertex
 10
60.28227468521951
 20
150.1716661911405
 30
0.0
  0
VERTEX
  5
2CC
330
2C0
100
AcDbEntity
  8
Sichtbare Kanten(TC_020513_DIN)
100
AcDbVertex
100
AcDb2dVertex
 10
60.26219030411599
 20
150.1820874672331
 30
0.0
  0
VERTEX
  5
2CD
330
2C0
100
AcDbEntity
  8
Sichtbare Kanten(TC_020513_DIN)
100
AcDbVertex
100
AcDb2dVertex
 10
60.24360319168923
 20
150.1933694343962
 30
0.0
  0
VERTEX
  5
2CE
330
2C0
100
AcDbEntity
  8
Sichtbare Kanten(TC_020513_DIN)
100
AcDbVertex
100
AcDb2dVertex
 10
60.2266540149009
 20
150.2052832107939
 30
0.0
  0
VERTEX
  5
2CF
330
2C0
100
AcDbEntity
  8
Sichtbare Kanten(TC_020513_DIN)
100
AcDbVertex
100
AcDb2dVertex
 10
60.21125694306252
 20
150.2176928978361
 30
0.0
  0
VERTEX
  5
2D0
330
2C0
100
AcDbEntity
  8
Sichtbare Kanten(TC_020513_DIN)
100
AcDbVertex
100
AcDb2dVertex
 10
60.19733568222878
 20
150.2304649811186
 30
0.0
  0
VERTEX
  5
2D1
330
2C0
100
AcDbEntity
  8
Sichtbare Kanten(TC_020513_DIN)
100
AcDbVertex
100
AcDb2dVertex
 10
60.18480917008279
 20
150.2434647541441
 30
0.0
  0
VERTEX
  5
2D2
330
2C0
100
AcDbEntity
  8
Sichtbare Kanten(TC_020513_DIN)
100
AcDbVertex
100
AcDb2dVertex
 10
60.17359396012185
 20
150.2565575104154
 30
0.0
  0
VERTEX
  5
2D3
330
2C0
100
AcDbEntity
  8
Sichtbare Kanten(TC_020513_DIN)
100
AcDbVertex
100
AcDb2dVertex
 10
60.16361137421487
 20
150.2696097355284
 30
0.0
  0
VERTEX
  5
2D4
330
2C0
100
AcDbEntity
  8
Sichtbare Kanten(TC_020513_DIN)
100
AcDbVertex
100
AcDb2dVertex
 10
60.15477796585916
 20
150.2824855308927
 30
0.0
  0
VERTEX
  5
2D5
330
2C0
100
AcDbEntity
  8
Sichtbare Kanten(TC_020513_DIN)
100
AcDbVertex
100
AcDb2dVertex
 10
60.14701505692361
 20
150.2950513821043
 30
0.0
  0
VERTEX
  5
2D6
330
2C0
100
AcDbEntity
  8
Sichtbare Kanten(TC_020513_DIN)
100
AcDbVertex
100
AcDb2dVertex
 10
60.14024158509133
 20
150.3071713905729
 30
0.0
  0
VERTEX
  5
2D7
330
2C0
100
AcDbEntity
  8
Sichtbare Kanten(TC_020513_DIN)
100
AcDbVertex
100
AcDb2dVertex
 10
60.13437648804544
 20
150.3187132339872
 30
0.0
  0
VERTEX
  5
2D8
330
2C0
100
AcDbEntity
  8
Sichtbare Kanten(TC_020513_DIN)
100
AcDbVertex
100
AcDb2dVertex
 10
60.12933870346902
 20
150.3295410137571
 30
0.0
  0
VERTEX
  5
2D9
330
2C0
100
AcDbEntity
  8
Sichtbare Kanten(TC_020513_DIN)
100
AcDbVertex
100
AcDb2dVertex
 10
60.12504716904519
 20
150.3395212154783
 30
0.0
  0
VERTEX
  5
2DA
330
2C0
100
AcDbEntity
  8
Sichtbare Kanten(TC_020513_DIN)
100
AcDbVertex
100
AcDb2dVertex
 10
60.12141843827127
 20
150.3485191326536
 30
0.0
  0
SEQEND
  5
2C3
330
2C0
100
AcDbEntity
  8
Sichtbare Kanten(TC_020513_DIN)
  0
POLYLINE
  5
2DB
330
37
100
AcDbEntity
  8
Sichtbare Kanten(TC_020513_DIN)
100
AcDb2dPolyline
 66
     1
 10
0.0
 20
0.0
 30
0.0
 70
   128
  0
VERTEX
  5
2DC
330
2DB
100
AcDbEntity
  8
Sichtbare Kanten(TC_020513_DIN)
100
AcDbVertex
100
AcDb2dVertex
 10
61.50041004212258
 20
150.3485191326536
 30
0.0
  0
VERTEX
  5
2DD
330
2DB
100
AcDbEntity
  8
Sichtbare Kanten(TC_020513_DIN)
100
AcDbVertex
100
AcDb2dVertex
 10
61.50223871262429
 20
150.3394353847898
 30
0.0
  0
VERTEX
  5
2DF
330
2DB
100
AcDbEntity
  8
Sichtbare Kanten(TC_020513_DIN)
100
AcDbVertex
100
AcDb2dVertex
 10
61.50437494309304
 20
150.3294563751615
 30
0.0
  0
VERTEX
  5
2E0
330
2DB
100
AcDbEntity
  8
Sichtbare Kanten(TC_020513_DIN)
100
AcDbVertex
100
AcDb2dVertex
 10
61.50686164887307
 20
150.3187013130583
 30
0.0
  0
VERTEX
  5
2E1
330
2DB
100
AcDbEntity
  8
Sichtbare Kanten(TC_020513_DIN)
100
AcDbVertex
100
AcDb2dVertex
 10
61.50974174530862
 20
150.3072941761411
 30
0.0
  0
VERTEX
  5
2E2
330
2DB
100
AcDbEntity
  8
Sichtbare Kanten(TC_020513_DIN)
100
AcDbVertex
100
AcDb2dVertex
 10
61.51305576355813
 20
150.2953553657926
 30
0.0
  0
VERTEX
  5
2E3
330
2DB
100
AcDbEntity
  8
Sichtbare Kanten(TC_020513_DIN)
100
AcDbVertex
100
AcDb2dVertex
 10
61.51684185059426
 20
150.2830064754881
 30
0.0
  0
VERTEX
  5
2E4
330
2DB
100
AcDbEntity
  8
Sichtbare Kanten(TC_020513_DIN)
100
AcDbVertex
100
AcDb2dVertex
 10
61.52114053757546
 20
150.2703702907957
 30
0.0
  0
VERTEX
  5
2E5
330
2DB
100
AcDbEntity
  8
Sichtbare Kanten(TC_020513_DIN)
100
AcDbVertex
100
AcDb2dVertex
 10
61.52599473984597
 20
150.2575672130979
 30
0.0
  0
VERTEX
  5
2E6
330
2DB
100
AcDbEntity
  8
Sichtbare Kanten(TC_020513_DIN)
100
AcDbVertex
100
AcDb2dVertex
 10
61.53144498856423
 20
150.2447200279631
 30
0.0
  0
VERTEX
  5
2E7
330
2DB
100
AcDbEntity
  8
Sichtbare Kanten(TC_020513_DIN)
100
AcDbVertex
100
AcDb2dVertex
 10
61.5375318148887
 20
150.2319503288664
 30
0.0
  0
VERTEX
  5
2E8
330
2DB
100
AcDbEntity
  8
Sichtbare Kanten(TC_020513_DIN)
100
AcDbVertex
100
AcDb2dVertex
 10
61.54429336579202
 20
150.2193797092832
 30
0.0
  0
VERTEX
  5
2E9
330
2DB
100
AcDbEntity
  8
Sichtbare Kanten(TC_020513_DIN)
100
AcDbVertex
100
AcDb2dVertex
 10
61.55177255661843
 20
150.207129762689
 30
0.0
  0
VERTEX
  5
2EA
330
2DB
100
AcDbEntity
  8
Sichtbare Kanten(TC_020513_DIN)
100
AcDbVertex
100
AcDb2dVertex
 10
61.56001230271218
 20
150.195322082559
 30
0.0
  0
VERTEX
  5
2EB
330
2DB
100
AcDbEntity
  8
Sichtbare Kanten(TC_020513_DIN)
100
AcDbVertex
100
AcDb2dVertex
 10
61.56904836686013
 20
150.1840794544615
 30
0.0
  0
VERTEX
  5
2EC
330
2DB
100
AcDbEntity
  8
Sichtbare Kanten(TC_020513_DIN)
100
AcDbVertex
100
AcDb2dVertex
 10
61.57885452301858
 20
150.1735949974455
 30
0.0
  0
VERTEX
  5
2ED
330
2DB
100
AcDbEntity
  8
Sichtbare Kanten(TC_020513_DIN)
100
AcDbVertex
100
AcDb2dVertex
 10
61.58928533585427
 20
150.1641178589262
 30
0.0
  0
VERTEX
  5
2EE
330
2DB
100
AcDbEntity
  8
Sichtbare Kanten(TC_020513_DIN)
100
AcDbVertex
100
AcDb2dVertex
 10
61.60033842118142
 20
150.1556790333189
 30
0.0
  0
VERTEX
  5
2EF
330
2DB
100
AcDbEntity
  8
Sichtbare Kanten(TC_020513_DIN)
100
AcDbVertex
100
AcDb2dVertex
 10
61.61202331574319
 20
150.1482987862028
 30
0.0
  0
VERTEX
  5
2F0
330
2DB
100
AcDbEntity
  8
Sichtbare Kanten(TC_020513_DIN)
100
AcDbVertex
100
AcDb2dVertex
 10
61.62435194046853
 20
150.14199857525
 30
0.0
  0
VERTEX
  5
2F1
330
2DB
100
AcDbEntity
  8
Sichtbare Kanten(TC_020513_DIN)
100
AcDbVertex
100
AcDb2dVertex
 10
61.63730522187112
 20
150.136808202783
 30
0.0
  0
VERTEX
  5
2F2
330
2DB
100
AcDbEntity
  8
Sichtbare Kanten(TC_020513_DIN)
100
AcDbVertex
100
AcDb2dVertex
 10
61.65084262879251
 20
150.1327574711241
 30
0.0
  0
VERTEX
  5
2F3
330
2DB
100
AcDbEntity
  8
Sichtbare Kanten(TC_020513_DIN)
100
AcDbVertex
100
AcDb2dVertex
 10
61.66495224030374
 20
150.1298547249235
 30
0.0
  0
VERTEX
  5
2F4
330
2DB
100
AcDbEntity
  8
Sichtbare Kanten(TC_020513_DIN)
100
AcDbVertex
100
AcDb2dVertex
 10
61.67963167221902
 20
150.1281083088316
 30
0.0
  0
VERTEX
  5
2F5
330
2DB
100
AcDbEntity
  8
Sichtbare Kanten(TC_020513_DIN)
100
AcDbVertex
100
AcDb2dVertex
 10
61.69487377198098
 20
150.1275241833128
 30
0.0
  0
SEQEND
  5
2DE
330
2DB
100
AcDbEntity
  8
Sichtbare Kanten(TC_020513_DIN)
  0
LINE
  5
2F6
330
37
100
AcDbEntity
  8
Sichtbare Kanten(TC_020513_DIN)
100
AcDbLine
 10
62.87940288575054
 20
140.1275242392246
 30
0.0
 11
60.07940288575053
 21
140.1275242392246
 31
0.0
  0
LINE
  5
2F7
330
37
100
AcDbEntity
  8
Sichtbare Kanten(TC_020513_DIN)
100
AcDbLine
 10
60.51034235740701
 20
150.1275242392245
 30
0.0
 11
62.87940288575054
 21
150.1275242392245
 31
0.0
  0
POLYLINE
  5
2F8
330
37
100
AcDbEntity
  8
Sichtbare Kanten(TC_020513_DIN)
100
AcDb2dPolyline
 66
     1
 10
0.0
 20
0.0
 30
0.0
 70
   128
  0
VERTEX
  5
2F9
330
2F8
100
AcDbEntity
  8
Sichtbare Kanten(TC_020513_DIN)
100
AcDbVertex
100
AcDb2dVertex
 10
73.7949289897239
 20
149.4906080227293
 30
0.0
  0
VERTEX
  5
2FA
330
2F8
100
AcDbEntity
  8
Sichtbare Kanten(TC_020513_DIN)
100
AcDbVertex
100
AcDb2dVertex
 10
73.82255931885598
 20
149.6240985851683
 30
0.0
  0
VERTEX
  5
2FC
330
2F8
100
AcDbEntity
  8
Sichtbare Kanten(TC_020513_DIN)
100
AcDbVertex
100
AcDb2dVertex
 10
73.85013719590066
 20
149.75452308468
 30
0.0
  0
VERTEX
  5
2FD
330
2F8
100
AcDbEntity
  8
Sichtbare Kanten(TC_020513_DIN)
100
AcDbVertex
100
AcDb2dVertex
 10
73.87768169434426
 20
149.8816419105924
 30
0.0
  0
VERTEX
  5
2FE
330
2F8
100
AcDbEntity
  8
Sichtbare Kanten(TC_020513_DIN)
100
AcDbVertex
100
AcDb2dVertex
 10
73.90521188767312
 20
150.0052154522337
 30
0.0
  0
VERTEX
  5
2FF
330
2F8
100
AcDbEntity
  8
Sichtbare Kanten(TC_020513_DIN)
100
AcDbVertex
100
AcDb2dVertex
 10
73.93274208100198
 20
150.1250029068388
 30
0.0
  0
VERTEX
  5
300
330
2F8
100
AcDbEntity
  8
Sichtbare Kanten(TC_020513_DIN)
100
AcDbVertex
100
AcDb2dVertex
 10
73.96029373200295
 20
150.2407670479215
 30
0.0
  0
VERTEX
  5
301
330
2F8
100
AcDbEntity
  8
Sichtbare Kanten(TC_020513_DIN)
100
AcDbVertex
100
AcDb2dVertex
 10
73.9878811457908
 20
150.3522658806242
 30
0.0
  0
VERTEX
  5
302
330
2F8
100
AcDbEntity
  8
Sichtbare Kanten(TC_020513_DIN)
100
AcDbVertex
100
AcDb2dVertex
 10
74.01552339585183
 20
150.4592466812528
 30
0.0
  0
VERTEX
  5
303
330
2F8
100
AcDbEntity
  8
Sichtbare Kanten(TC_020513_DIN)
100
AcDbVertex
100
AcDb2dVertex
 10
74.04313941986917
 20
150.5611277084745
 30
0.0
  0
VERTEX
  5
304
330
2F8
100
AcDbEntity
  8
Sichtbare Kanten(TC_020513_DIN)
100
AcDbVertex
100
AcDb2dVertex
 10
74.07071014435647
 20
150.6575775604643
 30
0.0
  0
VERTEX
  5
305
330
2F8
100
AcDbEntity
  8
Sichtbare Kanten(TC_020513_DIN)
100
AcDbVertex
100
AcDb2dVertex
 10
74.09824987442849
 20
150.7484305363096
 30
0.0
  0
VERTEX
  5
306
330
2F8
100
AcDbEntity
  8
Sichtbare Kanten(TC_020513_DIN)
100
AcDbVertex
100
AcDb2dVertex
 10
74.12577768357156
 20
150.833520935098
 30
0.0
  0
VERTEX
  5
307
330
2F8
100
AcDbEntity
  8
Sichtbare Kanten(TC_020513_DIN)
100
AcDbVertex
100
AcDb2dVertex
 10
74.15331026108621
 20
150.9126830559172
 30
0.0
  0
VERTEX
  5
308
330
2F8
100
AcDbEntity
  8
Sichtbare Kanten(TC_020513_DIN)
100
AcDbVertex
100
AcDb2dVertex
 10
74.18086906464456
 20
150.9857535820402
 30
0.0
  0
VERTEX
  5
309
330
2F8
100
AcDbEntity
  8
Sichtbare Kanten(TC_020513_DIN)
100
AcDbVertex
100
AcDb2dVertex
 10
74.20846839936135
 20
151.0525668125547
 30
0.0
  0
VERTEX
  5
30A
330
2F8
100
AcDbEntity
  8
Sichtbare Kanten(TC_020513_DIN)
100
AcDbVertex
100
AcDb2dVertex
 10
74.23611780197976
 20
151.1129332046903
 30
0.0
  0
VERTEX
  5
30B
330
2F8
100
AcDbEntity
  8
Sichtbare Kanten(TC_020513_DIN)
100
AcDbVertex
100
AcDb2dVertex
 10
74.26375289948342
 20
151.1665463905729
 30
0.0
  0
VERTEX
  5
30C
330
2F8
100
AcDbEntity
  8
Sichtbare Kanten(TC_020513_DIN)
100
AcDbVertex
100
AcDb2dVertex
 10
74.29137369187234
 20
151.2132800083555
 30
0.0
  0
VERTEX
  5
30D
330
2F8
100
AcDbEntity
  8
Sichtbare Kanten(TC_020513_DIN)
100
AcDbVertex
100
AcDb2dVertex
 10
74.31900402100442
 20
151.2530434589781
 30
0.0
  0
VERTEX
  5
30E
330
2F8
100
AcDbEntity
  8
Sichtbare Kanten(TC_020513_DIN)
100
AcDbVertex
100
AcDb2dVertex
 10
74.34665342362283
 20
151.2857461433805
 30
0.0
  0
VERTEX
  5
30F
330
2F8
100
AcDbEntity
  8
Sichtbare Kanten(TC_020513_DIN)
100
AcDbVertex
100
AcDb2dVertex
 10
74.37429328949807
 20
151.3112569313444
 30
0.0
  0
VERTEX
  5
310
330
2F8
100
AcDbEntity
  8
Sichtbare Kanten(TC_020513_DIN)
100
AcDbVertex
100
AcDb2dVertex
 10
74.40191885025857
 20
151.3295174103178
 30
0.0
  0
VERTEX
  5
311
330
2F8
100
AcDbEntity
  8
Sichtbare Kanten(TC_020513_DIN)
100
AcDbVertex
100
AcDb2dVertex
 10
74.42954441101907
 20
151.3404953937925
 30
0.0
  0
VERTEX
  5
312
330
2F8
100
AcDbEntity
  8
Sichtbare Kanten(TC_020513_DIN)
100
AcDbVertex
100
AcDb2dVertex
 10
74.45718904526589
 20
151.3441610794462
 30
0.0
  0
SEQEND
  5
2FB
330
2F8
100
AcDbEntity
  8
Sichtbare Kanten(TC_020513_DIN)
  0
POLYLINE
  5
313
330
37
100
AcDbEntity
  8
Sichtbare Kanten(TC_020513_DIN)
100
AcDb2dPolyline
 66
     1
 10
0.0
 20
0.0
 30
0.0
 70
   128
  0
VERTEX
  5
314
330
313
100
AcDbEntity
  8
Sichtbare Kanten(TC_020513_DIN)
100
AcDbVertex
100
AcDb2dVertex
 10
74.45718904526589
 20
149.9441612224974
 30
0.0
  0
VERTEX
  5
315
330
313
100
AcDbEntity
  8
Sichtbare Kanten(TC_020513_DIN)
100
AcDbVertex
100
AcDb2dVertex
 10
74.42953249009011
 20
149.9423265915312
 30
0.0
  0
VERTEX
  5
317
330
313
100
AcDbEntity
  8
Sichtbare Kanten(TC_020513_DIN)
100
AcDbVertex
100
AcDb2dVertex
 10
74.40193315537332
 20
149.9368429642118
 30
0.0
  0
VERTEX
  5
318
330
313
100
AcDbEntity
  8
Sichtbare Kanten(TC_020513_DIN)
100
AcDbVertex
100
AcDb2dVertex
 10
74.37436958344338
 20
149.9277377586759
 30
0.0
  0
VERTEX
  5
319
330
313
100
AcDbEntity
  8
Sichtbare Kanten(TC_020513_DIN)
100
AcDbVertex
100
AcDb2dVertex
 10
74.34682508499978
 20
149.9150419693388
 30
0.0
  0
VERTEX
  5
31A
330
313
100
AcDbEntity
  8
Sichtbare Kanten(TC_020513_DIN)
100
AcDbVertex
100
AcDb2dVertex
 10
74.31928058655618
 20
149.8987842064298
 30
0.0
  0
VERTEX
  5
31B
330
313
100
AcDbEntity
  8
Sichtbare Kanten(TC_020513_DIN)
100
AcDbVertex
100
AcDb2dVertex
 10
74.29172178299783
 20
149.8789918880857
 30
0.0
  0
VERTEX
  5
31C
330
313
100
AcDbEntity
  8
Sichtbare Kanten(TC_020513_DIN)
100
AcDbVertex
100
AcDb2dVertex
 10
74.2641296008384
 20
149.8556960087217
 30
0.0
  0
VERTEX
  5
31D
330
313
100
AcDbEntity
  8
Sichtbare Kanten(TC_020513_DIN)
100
AcDbVertex
100
AcDb2dVertex
 10
74.23648258240579
 20
149.8289251785673
 30
0.0
  0
VERTEX
  5
31E
330
313
100
AcDbEntity
  8
Sichtbare Kanten(TC_020513_DIN)
100
AcDbVertex
100
AcDb2dVertex
 10
74.20881887467263
 20
149.7987664204038
 30
0.0
  0
VERTEX
  5
31F
330
313
100
AcDbEntity
  8
Sichtbare Kanten(TC_020513_DIN)
100
AcDbVertex
100
AcDb2dVertex
 10
74.18120761902688
 20
149.7653878193296
 30
0.0
  0
VERTEX
  5
320
330
313
100
AcDbEntity
  8
Sichtbare Kanten(TC_020513_DIN)
100
AcDbVertex
100
AcDb2dVertex
 10
74.15363927872537
 20
149.728876398126
 30
0.0
  0
VERTEX
  5
321
330
313
100
AcDbEntity
  8
Sichtbare Kanten(TC_020513_DIN)
100
AcDbVertex
100
AcDb2dVertex
 10
74.12609239609597
 20
149.689312027017
 30
0.0
  0
VERTEX
  5
322
330
313
100
AcDbEntity
  8
Sichtbare Kanten(TC_020513_DIN)
100
AcDbVertex
100
AcDb2dVertex
 10
74.09855028183816
 20
149.6467781525053
 30
0.0
  0
VERTEX
  5
323
330
313
100
AcDbEntity
  8
Sichtbare Kanten(TC_020513_DIN)
100
AcDbVertex
100
AcDb2dVertex
 10
74.07099624665139
 20
149.6013570290006
 30
0.0
  0
VERTEX
  5
324
330
313
100
AcDbEntity
  8
Sichtbare Kanten(TC_020513_DIN)
100
AcDbVertex
100
AcDb2dVertex
 10
74.04341121704934
 20
149.55312971882
 30
0.0
  0
VERTEX
  5
325
330
313
100
AcDbEntity
  8
Sichtbare Kanten(TC_020513_DIN)
100
AcDbVertex
100
AcDb2dVertex
 10
74.01577373535989
 20
149.502179668466
 30
0.0
  0
VERTEX
  5
326
330
313
100
AcDbEntity
  8
Sichtbare Kanten(TC_020513_DIN)
100
AcDbVertex
100
AcDb2dVertex
 10
73.98810287506936
 20
149.4486499290861
 30
0.0
  0
VERTEX
  5
327
330
313
100
AcDbEntity
  8
Sichtbare Kanten(TC_020513_DIN)
100
AcDbVertex
100
AcDb2dVertex
 10
73.96047969849465
 20
149.3928468685545
 30
0.0
  0
VERTEX
  5
328
330
313
100
AcDbEntity
  8
Sichtbare Kanten(TC_020513_DIN)
100
AcDbVertex
100
AcDb2dVertex
 10
73.9328946688926
 20
149.3349075775541
 30
0.0
  0
VERTEX
  5
329
330
313
100
AcDbEntity
  8
Sichtbare Kanten(TC_020513_DIN)
100
AcDbVertex
100
AcDb2dVertex
 10
73.90533109696267
 20
149.2749524574674
 30
0.0
  0
VERTEX
  5
32A
330
313
100
AcDbEntity
  8
Sichtbare Kanten(TC_020513_DIN)
100
AcDbVertex
100
AcDb2dVertex
 10
73.87776990921853
 20
149.2131031017698
 30
0.0
  0
VERTEX
  5
32B
330
313
100
AcDbEntity
  8
Sichtbare Kanten(TC_020513_DIN)
100
AcDbVertex
100
AcDb2dVertex
 10
73.85019441635964
 20
149.1494775276579
 30
0.0
  0
VERTEX
  5
32C
330
313
100
AcDbEntity
  8
Sichtbare Kanten(TC_020513_DIN)
100
AcDbVertex
100
AcDb2dVertex
 10
73.82258792908547
 20
149.0841985206999
 30
0.0
  0
VERTEX
  5
32D
330
313
100
AcDbEntity
  8
Sichtbare Kanten(TC_020513_DIN)
100
AcDbVertex
100
AcDb2dVertex
 10
73.7949289897239
 20
149.0173852901853
 30
0.0
  0
SEQEND
  5
316
330
313
100
AcDbEntity
  8
Sichtbare Kanten(TC_020513_DIN)
  0
LINE
  5
32E
330
37
100
AcDbEntity
  8
Sichtbare Kanten(TC_020513_DIN)
100
AcDbLine
 10
74.45718981126835
 20
150.5601626720959
 30
0.0
 11
74.45718981126834
 21
149.9441615418153
 31
0.0
  0
LINE
  5
32F
330
37
100
AcDbEntity
  8
Sichtbare Kanten(TC_020513_DIN)
100
AcDbLine
 10
74.45718981126834
 20
151.3441615418153
 30
0.0
 11
74.45718981126835
 21
150.5601626720959
 31
0.0
  0
POLYLINE
  5
330
330
37
100
AcDbEntity
  8
Sichtbare Kanten(TC_020513_DIN)
100
AcDb2dPolyline
 66
     1
 10
0.0
 20
0.0
 30
0.0
 70
   128
  0
VERTEX
  5
331
330
330
100
AcDbEntity
  8
Sichtbare Kanten(TC_020513_DIN)
100
AcDbVertex
100
AcDb2dVertex
 10
73.38350196869729
 20
148.5441613655485
 30
0.0
  0
VERTEX
  5
332
330
330
100
AcDbEntity
  8
Sichtbare Kanten(TC_020513_DIN)
100
AcDbVertex
100
AcDb2dVertex
 10
73.39370628388284
 20
148.5579181175626
 30
0.0
  0
VERTEX
  5
334
330
330
100
AcDbEntity
  8
Sichtbare Kanten(TC_020513_DIN)
100
AcDbVertex
100
AcDb2dVertex
 10
73.40523143799661
 20
148.5737824898161
 30
0.0
  0
VERTEX
  5
335
330
330
100
AcDbEntity
  8
Sichtbare Kanten(TC_020513_DIN)
100
AcDbVertex
100
AcDb2dVertex
 10
73.41796537430642
 20
148.5917246799863
 30
0.0
  0
VERTEX
  5
336
330
330
100
AcDbEntity
  8
Sichtbare Kanten(TC_020513_DIN)
100
AcDbVertex
100
AcDb2dVertex
 10
73.43179842026589
 20
148.6117220383085
 30
0.0
  0
VERTEX
  5
337
330
330
100
AcDbEntity
  8
Sichtbare Kanten(TC_020513_DIN)
100
AcDbVertex
100
AcDb2dVertex
 10
73.44662567170022
 20
148.633745954553
 30
0.0
  0
VERTEX
  5
338
330
330
100
AcDbEntity
  8
Sichtbare Kanten(TC_020513_DIN)
100
AcDbVertex
100
AcDb2dVertex
 10
73.46233268769143
 20
148.6577702026762
 30
0.0
  0
VERTEX
  5
339
330
330
100
AcDbEntity
  8
Sichtbare Kanten(TC_020513_DIN)
100
AcDbVertex
100
AcDb2dVertex
 10
73.47881217987893
 20
148.6837685566343
 30
0.0
  0
VERTEX
  5
33A
330
330
100
AcDbEntity
  8
Sichtbare Kanten(TC_020513_DIN)
100
AcDbVertex
100
AcDb2dVertex
 10
73.49595685990212
 20
148.7117159824766
 30
0.0
  0
VERTEX
  5
33B
330
330
100
AcDbEntity
  8
Sichtbare Kanten(TC_020513_DIN)
100
AcDbVertex
100
AcDb2dVertex
 10
73.51365467102883
 20
148.7415838699735
 30
0.0
  0
VERTEX
  5
33C
330
330
100
AcDbEntity
  8
Sichtbare Kanten(TC_020513_DIN)
100
AcDbVertex
100
AcDb2dVertex
 10
73.53179832489846
 20
148.7733483772673
 30
0.0
  0
VERTEX
  5
33D
330
330
100
AcDbEntity
  8
Sichtbare Kanten(TC_020513_DIN)
100
AcDbVertex
100
AcDb2dVertex
 10
73.55027814896462
 20
148.8069808941282
 30
0.0
  0
VERTEX
  5
33E
330
330
100
AcDbEntity
  8
Sichtbare Kanten(TC_020513_DIN)
100
AcDbVertex
100
AcDb2dVertex
 10
73.56898447068093
 20
148.8424551945127
 30
0.0
  0
VERTEX
  5
33F
330
330
100
AcDbEntity
  8
Sichtbare Kanten(TC_020513_DIN)
100
AcDbVertex
100
AcDb2dVertex
 10
73.587807617501
 20
148.87974624447
 30
0.0
  0
VERTEX
  5
340
330
330
100
AcDbEntity
  8
Sichtbare Kanten(TC_020513_DIN)
100
AcDbVertex
100
AcDb2dVertex
 10
73.60664030106423
 20
148.9188266258634
 30
0.0
  0
VERTEX
  5
341
330
330
100
AcDbEntity
  8
Sichtbare Kanten(TC_020513_DIN)
100
AcDbVertex
100
AcDb2dVertex
 10
73.62537046463845
 20
148.9596713047422
 30
0.0
  0
VERTEX
  5
342
330
330
100
AcDbEntity
  8
Sichtbare Kanten(TC_020513_DIN)
100
AcDbVertex
100
AcDb2dVertex
 10
73.64389320404885
 20
149.0022516708769
 30
0.0
  0
VERTEX
  5
343
330
330
100
AcDbEntity
  8
Sichtbare Kanten(TC_020513_DIN)
100
AcDbVertex
100
AcDb2dVertex
 10
73.66253992112039
 20
149.0475595455564
 30
0.0
  0
VERTEX
  5
344
330
330
100
AcDbEntity
  8
Sichtbare Kanten(TC_020513_DIN)
100
AcDbVertex
100
AcDb2dVertex
 10
73.68187566788552
 20
149.0973759155668
 30
0.0
  0
VERTEX
  5
345
330
330
100
AcDbEntity
  8
Sichtbare Kanten(TC_020513_DIN)
100
AcDbVertex
100
AcDb2dVertex
 10
73.7015976527488
 20
149.1517162781156
 30
0.0
  0
VERTEX
  5
346
330
330
100
AcDbEntity
  8
Sichtbare Kanten(TC_020513_DIN)
100
AcDbVertex
100
AcDb2dVertex
 10
73.72138877900002
 20
149.2105627518095
 30
0.0
  0
VERTEX
  5
347
330
330
100
AcDbEntity
  8
Sichtbare Kanten(TC_020513_DIN)
100
AcDbVertex
100
AcDb2dVertex
 10
73.74093671830056
 20
149.2738950710691
 30
0.0
  0
VERTEX
  5
348
330
330
100
AcDbEntity
  8
Sichtbare Kanten(TC_020513_DIN)
100
AcDbVertex
100
AcDb2dVertex
 10
73.75991960556863
 20
149.3416917782225
 30
0.0
  0
VERTEX
  5
349
330
330
100
AcDbEntity
  8
Sichtbare Kanten(TC_020513_DIN)
100
AcDbVertex
100
AcDb2dVertex
 10
73.77802272827981
 20
149.4139361839689
 30
0.0
  0
VERTEX
  5
34A
330
330
100
AcDbEntity
  8
Sichtbare Kanten(TC_020513_DIN)
100
AcDbVertex
100
AcDb2dVertex
 10
73.7949289897239
 20
149.4906080227293
 30
0.0
  0
SEQEND
  5
333
330
330
100
AcDbEntity
  8
Sichtbare Kanten(TC_020513_DIN)
  0
POLYLINE
  5
34B
330
37
100
AcDbEntity
  8
Sichtbare Kanten(TC_020513_DIN)
100
AcDb2dPolyline
 66
     1
 10
0.0
 20
0.0
 30
0.0
 70
   128
  0
VERTEX
  5
34C
330
34B
100
AcDbEntity
  8
Sichtbare Kanten(TC_020513_DIN)
100
AcDbVertex
100
AcDb2dVertex
 10
73.7949289897239
 20
149.0173852901853
 30
0.0
  0
VERTEX
  5
34D
330
34B
100
AcDbEntity
  8
Sichtbare Kanten(TC_020513_DIN)
100
AcDbVertex
100
AcDb2dVertex
 10
73.78908773453591
 20
149.003493831674
 30
0.0
  0
VERTEX
  5
34F
330
34B
100
AcDbEntity
  8
Sichtbare Kanten(TC_020513_DIN)
100
AcDbVertex
100
AcDb2dVertex
 10
73.78214975388406
 20
148.9878464203275
 30
0.0
  0
VERTEX
  5
350
330
34B
100
AcDbEntity
  8
Sichtbare Kanten(TC_020513_DIN)
100
AcDbVertex
100
AcDb2dVertex
 10
73.77401252777932
 20
148.9705384235777
 30
0.0
  0
VERTEX
  5
351
330
34B
100
AcDbEntity
  8
Sichtbare Kanten(TC_020513_DIN)
100
AcDbVertex
100
AcDb2dVertex
 10
73.76456876786111
 20
148.9516699772276
 30
0.0
  0
VERTEX
  5
352
330
34B
100
AcDbEntity
  8
Sichtbare Kanten(TC_020513_DIN)
100
AcDbVertex
100
AcDb2dVertex
 10
73.75371356995461
 20
148.9313388328947
 30
0.0
  0
VERTEX
  5
353
330
34B
100
AcDbEntity
  8
Sichtbare Kanten(TC_020513_DIN)
100
AcDbVertex
100
AcDb2dVertex
 10
73.74133964569924
 20
148.9096427421964
 30
0.0
  0
VERTEX
  5
354
330
34B
100
AcDbEntity
  8
Sichtbare Kanten(TC_020513_DIN)
100
AcDbVertex
100
AcDb2dVertex
 10
73.72734447510598
 20
148.8866818409361
 30
0.0
  0
VERTEX
  5
355
330
34B
100
AcDbEntity
  8
Sichtbare Kanten(TC_020513_DIN)
100
AcDbVertex
100
AcDb2dVertex
 10
73.71162076981423
 20
148.8625526886381
 30
0.0
  0
VERTEX
  5
356
330
34B
100
AcDbEntity
  8
Sichtbare Kanten(TC_020513_DIN)
100
AcDbVertex
100
AcDb2dVertex
 10
73.6940612414634
 20
148.83735303692
 30
0.0
  0
VERTEX
  5
357
330
34B
100
AcDbEntity
  8
Sichtbare Kanten(TC_020513_DIN)
100
AcDbVertex
100
AcDb2dVertex
 10
73.67456337006448
 20
148.8111842136778
 30
0.0
  0
VERTEX
  5
358
330
34B
100
AcDbEntity
  8
Sichtbare Kanten(TC_020513_DIN)
100
AcDbVertex
100
AcDb2dVertex
 10
73.65301986725686
 20
148.7841415863432
 30
0.0
  0
VERTEX
  5
359
330
34B
100
AcDbEntity
  8
Sichtbare Kanten(TC_020513_DIN)
100
AcDbVertex
100
AcDb2dVertex
 10
73.62980505020974
 20
148.7568951111234
 30
0.0
  0
VERTEX
  5
35A
330
34B
100
AcDbEntity
  8
Sichtbare Kanten(TC_020513_DIN)
100
AcDbVertex
100
AcDb2dVertex
 10
73.60623498947976
 20
148.7310076218046
 30
0.0
  0
VERTEX
  5
35B
330
34B
100
AcDbEntity
  8
Sichtbare Kanten(TC_020513_DIN)
100
AcDbVertex
100
AcDb2dVertex
 10
73.58256956131814
 20
148.7065709095396
 30
0.0
  0
VERTEX
  5
35C
330
34B
100
AcDbEntity
  8
Sichtbare Kanten(TC_020513_DIN)
100
AcDbVertex
100
AcDb2dVertex
 10
73.55900188477395
 20
148.6835945110716
 30
0.0
  0
VERTEX
  5
35D
330
34B
100
AcDbEntity
  8
Sichtbare Kanten(TC_020513_DIN)
100
AcDbVertex
100
AcDb2dVertex
 10
73.53572746308206
 20
148.6620879631437
 30
0.0
  0
VERTEX
  5
35E
330
34B
100
AcDbEntity
  8
Sichtbare Kanten(TC_020513_DIN)
100
AcDbVertex
100
AcDb2dVertex
 10
73.51294179947732
 20
148.642063186685
 30
0.0
  0
VERTEX
  5
35F
330
34B
100
AcDbEntity
  8
Sichtbare Kanten(TC_020513_DIN)
100
AcDbVertex
100
AcDb2dVertex
 10
73.49084039719461
 20
148.6235273342527
 30
0.0
  0
VERTEX
  5
360
330
34B
100
AcDbEntity
  8
Sichtbare Kanten(TC_020513_DIN)
100
AcDbVertex
100
AcDb2dVertex
 10
73.46961637528298
 20
148.606491134683
 30
0.0
  0
VERTEX
  5
361
330
34B
100
AcDbEntity
  8
Sichtbare Kanten(TC_020513_DIN)
100
AcDbVertex
100
AcDb2dVertex
 10
73.44946523697732
 20
148.5909653168119
 30
0.0
  0
VERTEX
  5
362
330
34B
100
AcDbEntity
  8
Sichtbare Kanten(TC_020513_DIN)
100
AcDbVertex
100
AcDb2dVertex
 10
73.43058486969827
 20
148.5769594173826
 30
0.0
  0
VERTEX
  5
363
330
34B
100
AcDbEntity
  8
Sichtbare Kanten(TC_020513_DIN)
100
AcDbVertex
100
AcDb2dVertex
 10
73.41316600830911
 20
148.5644841652311
 30
0.0
  0
VERTEX
  5
364
330
34B
100
AcDbEntity
  8
Sichtbare Kanten(TC_020513_DIN)
100
AcDbVertex
100
AcDb2dVertex
 10
73.39740654023049
 20
148.5535479050077
 30
0.0
  0
VERTEX
  5
365
330
34B
100
AcDbEntity
  8
Sichtbare Kanten(TC_020513_DIN)
100
AcDbVertex
100
AcDb2dVertex
 10
73.38350196869729
 20
148.5441613655485
 30
0.0
  0
SEQEND
  5
34E
330
34B
100
AcDbEntity
  8
Sichtbare Kanten(TC_020513_DIN)
  0
POLYLINE
  5
366
330
37
100
AcDbEntity
  8
Sichtbare Kanten(TC_020513_DIN)
100
AcDb2dPolyline
 66
     1
 10
0.0
 20
0.0
 30
0.0
 70
   128
  0
VERTEX
  5
367
330
366
100
AcDbEntity
  8
Sichtbare Kanten(TC_020513_DIN)
100
AcDbVertex
100
AcDb2dVertex
 10
122.2753038028037
 20
148.5441613655485
 30
0.0
  0
VERTEX
  5
368
330
366
100
AcDbEntity
  8
Sichtbare Kanten(TC_020513_DIN)
100
AcDbVertex
100
AcDb2dVertex
 10
122.2613992312705
 20
148.5535479050077
 30
0.0
  0
VERTEX
  5
36A
330
366
100
AcDbEntity
  8
Sichtbare Kanten(TC_020513_DIN)
100
AcDbVertex
100
AcDb2dVertex
 10
122.2456397631919
 20
148.5644841652311
 30
0.0
  0
VERTEX
  5
36B
330
366
100
AcDbEntity
  8
Sichtbare Kanten(TC_020513_DIN)
100
AcDbVertex
100
AcDb2dVertex
 10
122.2282209018027
 20
148.5769594173826
 30
0.0
  0
VERTEX
  5
36C
330
366
100
AcDbEntity
  8
Sichtbare Kanten(TC_020513_DIN)
100
AcDbVertex
100
AcDb2dVertex
 10
122.2093405345237
 20
148.5909653168119
 30
0.0
  0
VERTEX
  5
36D
330
366
100
AcDbEntity
  8
Sichtbare Kanten(TC_020513_DIN)
100
AcDbVertex
100
AcDb2dVertex
 10
122.189189396218
 20
148.606491134683
 30
0.0
  0
VERTEX
  5
36E
330
366
100
AcDbEntity
  8
Sichtbare Kanten(TC_020513_DIN)
100
AcDbVertex
100
AcDb2dVertex
 10
122.1679653743064
 20
148.6235273342527
 30
0.0
  0
VERTEX
  5
36F
330
366
100
AcDbEntity
  8
Sichtbare Kanten(TC_020513_DIN)
100
AcDbVertex
100
AcDb2dVertex
 10
122.1458639720237
 20
148.642063186685
 30
0.0
  0
VERTEX
  5
370
330
366
100
AcDbEntity
  8
Sichtbare Kanten(TC_020513_DIN)
100
AcDbVertex
100
AcDb2dVertex
 10
122.1230783084189
 20
148.6620879631437
 30
0.0
  0
VERTEX
  5
371
330
366
100
AcDbEntity
  8
Sichtbare Kanten(TC_020513_DIN)
100
AcDbVertex
100
AcDb2dVertex
 10
122.099803886727
 20
148.6835945110716
 30
0.0
  0
VERTEX
  5
372
330
366
100
AcDbEntity
  8
Sichtbare Kanten(TC_020513_DIN)
100
AcDbVertex
100
AcDb2dVertex
 10
122.0762362101829
 20
148.7065709095396
 30
0.0
  0
VERTEX
  5
373
330
366
100
AcDbEntity
  8
Sichtbare Kanten(TC_020513_DIN)
100
AcDbVertex
100
AcDb2dVertex
 10
122.0525707820212
 20
148.7310076218046
 30
0.0
  0
VERTEX
  5
374
330
366
100
AcDbEntity
  8
Sichtbare Kanten(TC_020513_DIN)
100
AcDbVertex
100
AcDb2dVertex
 10
122.0290007212913
 20
148.7568951111234
 30
0.0
  0
VERTEX
  5
375
330
366
100
AcDbEntity
  8
Sichtbare Kanten(TC_020513_DIN)
100
AcDbVertex
100
AcDb2dVertex
 10
122.0057859042441
 20
148.7841415863432
 30
0.0
  0
VERTEX
  5
376
330
366
100
AcDbEntity
  8
Sichtbare Kanten(TC_020513_DIN)
100
AcDbVertex
100
AcDb2dVertex
 10
121.9842424014365
 20
148.8111842136778
 30
0.0
  0
VERTEX
  5
377
330
366
100
AcDbEntity
  8
Sichtbare Kanten(TC_020513_DIN)
100
AcDbVertex
100
AcDb2dVertex
 10
121.9647445300376
 20
148.83735303692
 30
0.0
  0
VERTEX
  5
378
330
366
100
AcDbEntity
  8
Sichtbare Kanten(TC_020513_DIN)
100
AcDbVertex
100
AcDb2dVertex
 10
121.9471850016868
 20
148.8625526886381
 30
0.0
  0
VERTEX
  5
379
330
366
100
AcDbEntity
  8
Sichtbare Kanten(TC_020513_DIN)
100
AcDbVertex
100
AcDb2dVertex
 10
121.931461296395
 20
148.8866818409361
 30
0.0
  0
VERTEX
  5
37A
330
366
100
AcDbEntity
  8
Sichtbare Kanten(TC_020513_DIN)
100
AcDbVertex
100
AcDb2dVertex
 10
121.9174661258018
 20
148.9096427421964
 30
0.0
  0
VERTEX
  5
37B
330
366
100
AcDbEntity
  8
Sichtbare Kanten(TC_020513_DIN)
100
AcDbVertex
100
AcDb2dVertex
 10
121.9050922015464
 20
148.9313388328947
 30
0.0
  0
VERTEX
  5
37C
330
366
100
AcDbEntity
  8
Sichtbare Kanten(TC_020513_DIN)
100
AcDbVertex
100
AcDb2dVertex
 10
121.8942370036399
 20
148.9516699772276
 30
0.0
  0
VERTEX
  5
37D
330
366
100
AcDbEntity
  8
Sichtbare Kanten(TC_020513_DIN)
100
AcDbVertex
100
AcDb2dVertex
 10
121.8847932437217
 20
148.9705384235777
 30
0.0
  0
VERTEX
  5
37E
330
366
100
AcDbEntity
  8
Sichtbare Kanten(TC_020513_DIN)
100
AcDbVertex
100
AcDb2dVertex
 10
121.8766560176169
 20
148.9878464203275
 30
0.0
  0
VERTEX
  5
37F
330
366
100
AcDbEntity
  8
Sichtbare Kanten(TC_020513_DIN)
100
AcDbVertex
100
AcDb2dVertex
 10
121.8697180369651
 20
149.003493831674
 30
0.0
  0
VERTEX
  5
380
330
366
100
AcDbEntity
  8
Sichtbare Kanten(TC_020513_DIN)
100
AcDbVertex
100
AcDb2dVertex
 10
121.8638767817771
 20
149.0173852901853
 30
0.0
  0
SEQEND
  5
369
330
366
100
AcDbEntity
  8
Sichtbare Kanten(TC_020513_DIN)
  0
POLYLINE
  5
381
330
37
100
AcDbEntity
  8
Sichtbare Kanten(TC_020513_DIN)
100
AcDb2dPolyline
 66
     1
 10
0.0
 20
0.0
 30
0.0
 70
   128
  0
VERTEX
  5
382
330
381
100
AcDbEntity
  8
Sichtbare Kanten(TC_020513_DIN)
100
AcDbVertex
100
AcDb2dVertex
 10
121.8638767817771
 20
149.0173852901853
 30
0.0
  0
VERTEX
  5
383
330
381
100
AcDbEntity
  8
Sichtbare Kanten(TC_020513_DIN)
100
AcDbVertex
100
AcDb2dVertex
 10
121.8362202266013
 20
149.0841925602354
 30
0.0
  0
VERTEX
  5
385
330
381
100
AcDbEntity
  8
Sichtbare Kanten(TC_020513_DIN)
100
AcDbVertex
100
AcDb2dVertex
 10
121.8086185076987
 20
149.1494560699857
 30
0.0
  0
VERTEX
  5
386
330
381
100
AcDbEntity
  8
Sichtbare Kanten(TC_020513_DIN)
100
AcDbVertex
100
AcDb2dVertex
 10
121.7810549357688
 20
149.213055418054
 30
0.0
  0
VERTEX
  5
387
330
381
100
AcDbEntity
  8
Sichtbare Kanten(TC_020513_DIN)
100
AcDbVertex
100
AcDb2dVertex
 10
121.7535104373252
 20
149.2748713951505
 30
0.0
  0
VERTEX
  5
388
330
381
100
AcDbEntity
  8
Sichtbare Kanten(TC_020513_DIN)
100
AcDbVertex
100
AcDb2dVertex
 10
121.7259683230674
 20
149.3347847919859
 30
0.0
  0
VERTEX
  5
389
330
381
100
AcDbEntity
  8
Sichtbare Kanten(TC_020513_DIN)
100
AcDbVertex
100
AcDb2dVertex
 10
121.698409519509
 20
149.3926763992704
 30
0.0
  0
VERTEX
  5
38A
330
381
100
AcDbEntity
  8
Sichtbare Kanten(TC_020513_DIN)
100
AcDbVertex
100
AcDb2dVertex
 10
121.6708173373496
 20
149.4484270077146
 30
0.0
  0
VERTEX
  5
38B
330
381
100
AcDbEntity
  8
Sichtbare Kanten(TC_020513_DIN)
100
AcDbVertex
100
AcDb2dVertex
 10
121.643170318917
 20
149.5019162159361
 30
0.0
  0
VERTEX
  5
38C
330
381
100
AcDbEntity
  8
Sichtbare Kanten(TC_020513_DIN)
100
AcDbVertex
100
AcDb2dVertex
 10
121.615504226998
 20
149.5529342155851
 30
0.0
  0
VERTEX
  5
38D
330
381
100
AcDbEntity
  8
Sichtbare Kanten(TC_020513_DIN)
100
AcDbVertex
100
AcDb2dVertex
 10
121.5878953555381
 20
149.6012115936674
 30
0.0
  0
VERTEX
  5
38E
330
381
100
AcDbEntity
  8
Sichtbare Kanten(TC_020513_DIN)
100
AcDbVertex
100
AcDb2dVertex
 10
121.5603270152366
 20
149.6466637115873
 30
0.0
  0
VERTEX
  5
38F
330
381
100
AcDbEntity
  8
Sichtbare Kanten(TC_020513_DIN)
100
AcDbVertex
100
AcDb2dVertex
 10
121.5327801326072
 20
149.6892118912138
 30
0.0
  0
VERTEX
  5
390
330
381
100
AcDbEntity
  8
Sichtbare Kanten(TC_020513_DIN)
100
AcDbVertex
100
AcDb2dVertex
 10
121.5052380183494
 20
149.7287762623228
 30
0.0
  0
VERTEX
  5
391
330
381
100
AcDbEntity
  8
Sichtbare Kanten(TC_020513_DIN)
100
AcDbVertex
100
AcDb2dVertex
 10
121.4776839831626
 20
149.7652793388761
 30
0.0
  0
VERTEX
  5
392
330
381
100
AcDbEntity
  8
Sichtbare Kanten(TC_020513_DIN)
100
AcDbVertex
100
AcDb2dVertex
 10
121.4500965693747
 20
149.7986400585569
 30
0.0
  0
VERTEX
  5
393
330
381
100
AcDbEntity
  8
Sichtbare Kanten(TC_020513_DIN)
100
AcDbVertex
100
AcDb2dVertex
 10
121.4224614718711
 20
149.8287809353269
 30
0.0
  0
VERTEX
  5
394
330
381
100
AcDbEntity
  8
Sichtbare Kanten(TC_020513_DIN)
100
AcDbVertex
100
AcDb2dVertex
 10
121.3947906115806
 20
149.8555934887327
 30
0.0
  0
VERTEX
  5
395
330
381
100
AcDbEntity
  8
Sichtbare Kanten(TC_020513_DIN)
100
AcDbVertex
100
AcDb2dVertex
 10
121.3671674350059
 20
149.8789275150694
 30
0.0
  0
VERTEX
  5
396
330
381
100
AcDbEntity
  8
Sichtbare Kanten(TC_020513_DIN)
100
AcDbVertex
100
AcDb2dVertex
 10
121.3395824054038
 20
149.8987460594572
 30
0.0
  0
VERTEX
  5
397
330
381
100
AcDbEntity
  8
Sichtbare Kanten(TC_020513_DIN)
100
AcDbVertex
100
AcDb2dVertex
 10
121.3120188334739
 20
149.9150228958525
 30
0.0
  0
VERTEX
  5
398
330
381
100
AcDbEntity
  8
Sichtbare Kanten(TC_020513_DIN)
100
AcDbVertex
100
AcDb2dVertex
 10
121.2844576457297
 20
149.9277306061186
 30
0.0
  0
VERTEX
  5
399
330
381
100
AcDbEntity
  8
Sichtbare Kanten(TC_020513_DIN)
100
AcDbVertex
100
AcDb2dVertex
 10
121.2568821528708
 20
149.936840580026
 30
0.0
  0
VERTEX
  5
39A
330
381
100
AcDbEntity
  8
Sichtbare Kanten(TC_020513_DIN)
100
AcDbVertex
100
AcDb2dVertex
 10
121.2292756655967
 20
149.9423265915312
 30
0.0
  0
VERTEX
  5
39B
330
381
100
AcDbEntity
  8
Sichtbare Kanten(TC_020513_DIN)
100
AcDbVertex
100
AcDb2dVertex
 10
121.2016167262351
 20
149.9441612224974
 30
0.0
  0
SEQEND
  5
384
330
381
100
AcDbEntity
  8
Sichtbare Kanten(TC_020513_DIN)
  0
POLYLINE
  5
39C
330
37
100
AcDbEntity
  8
Sichtbare Kanten(TC_020513_DIN)
100
AcDb2dPolyline
 66
     1
 10
0.0
 20
0.0
 30
0.0
 70
   128
  0
VERTEX
  5
39D
330
39C
100
AcDbEntity
  8
Sichtbare Kanten(TC_020513_DIN)
100
AcDbVertex
100
AcDb2dVertex
 10
121.8638767817771
 20
149.4906080227293
 30
0.0
  0
VERTEX
  5
39E
330
39C
100
AcDbEntity
  8
Sichtbare Kanten(TC_020513_DIN)
100
AcDbVertex
100
AcDb2dVertex
 10
121.8807830432212
 20
149.4139361839689
 30
0.0
  0
VERTEX
  5
3A0
330
39C
100
AcDbEntity
  8
Sichtbare Kanten(TC_020513_DIN)
100
AcDbVertex
100
AcDb2dVertex
 10
121.8988861659324
 20
149.3416917782225
 30
0.0
  0
VERTEX
  5
3A1
330
39C
100
AcDbEntity
  8
Sichtbare Kanten(TC_020513_DIN)
100
AcDbVertex
100
AcDb2dVertex
 10
121.9178690532004
 20
149.2738950710691
 30
0.0
  0
VERTEX
  5
3A2
330
39C
100
AcDbEntity
  8
Sichtbare Kanten(TC_020513_DIN)
100
AcDbVertex
100
AcDb2dVertex
 10
121.937416992501
 20
149.2105627518095
 30
0.0
  0
VERTEX
  5
3A3
330
39C
100
AcDbEntity
  8
Sichtbare Kanten(TC_020513_DIN)
100
AcDbVertex
100
AcDb2dVertex
 10
121.9572081187522
 20
149.1517162781156
 30
0.0
  0
VERTEX
  5
3A4
330
39C
100
AcDbEntity
  8
Sichtbare Kanten(TC_020513_DIN)
100
AcDbVertex
100
AcDb2dVertex
 10
121.9769301036155
 20
149.0973759155668
 30
0.0
  0
VERTEX
  5
3A5
330
39C
100
AcDbEntity
  8
Sichtbare Kanten(TC_020513_DIN)
100
AcDbVertex
100
AcDb2dVertex
 10
121.9962658503806
 20
149.0475595455564
 30
0.0
  0
VERTEX
  5
3A6
330
39C
100
AcDbEntity
  8
Sichtbare Kanten(TC_020513_DIN)
100
AcDbVertex
100
AcDb2dVertex
 10
122.0149125674522
 20
149.0022516708769
 30
0.0
  0
VERTEX
  5
3A7
330
39C
100
AcDbEntity
  8
Sichtbare Kanten(TC_020513_DIN)
100
AcDbVertex
100
AcDb2dVertex
 10
122.0334353068625
 20
148.9596713047422
 30
0.0
  0
VERTEX
  5
3A8
330
39C
100
AcDbEntity
  8
Sichtbare Kanten(TC_020513_DIN)
100
AcDbVertex
100
AcDb2dVertex
 10
122.0521654704368
 20
148.9188266258634
 30
0.0
  0
VERTEX
  5
3A9
330
39C
100
AcDbEntity
  8
Sichtbare Kanten(TC_020513_DIN)
100
AcDbVertex
100
AcDb2dVertex
 10
122.070998154
 20
148.87974624447
 30
0.0
  0
VERTEX
  5
3AA
330
39C
100
AcDbEntity
  8
Sichtbare Kanten(TC_020513_DIN)
100
AcDbVertex
100
AcDb2dVertex
 10
122.0898213008201
 20
148.8424551945127
 30
0.0
  0
VERTEX
  5
3AB
330
39C
100
AcDbEntity
  8
Sichtbare Kanten(TC_020513_DIN)
100
AcDbVertex
100
AcDb2dVertex
 10
122.1085276225364
 20
148.8069808941282
 30
0.0
  0
VERTEX
  5
3AC
330
39C
100
AcDbEntity
  8
Sichtbare Kanten(TC_020513_DIN)
100
AcDbVertex
100
AcDb2dVertex
 10
122.1270074466025
 20
148.7733483772673
 30
0.0
  0
VERTEX
  5
3AD
330
39C
100
AcDbEntity
  8
Sichtbare Kanten(TC_020513_DIN)
100
AcDbVertex
100
AcDb2dVertex
 10
122.1451511004722
 20
148.7415838699735
 30
0.0
  0
VERTEX
  5
3AE
330
39C
100
AcDbEntity
  8
Sichtbare Kanten(TC_020513_DIN)
100
AcDbVertex
100
AcDb2dVertex
 10
122.1628489115989
 20
148.7117159824766
 30
0.0
  0
VERTEX
  5
3AF
330
39C
100
AcDbEntity
  8
Sichtbare Kanten(TC_020513_DIN)
100
AcDbVertex
100
AcDb2dVertex
 10
122.1799935916221
 20
148.6837685566343
 30
0.0
  0
VERTEX
  5
3B0
330
39C
100
AcDbEntity
  8
Sichtbare Kanten(TC_020513_DIN)
100
AcDbVertex
100
AcDb2dVertex
 10
122.1964730838096
 20
148.6577702026762
 30
0.0
  0
VERTEX
  5
3B1
330
39C
100
AcDbEntity
  8
Sichtbare Kanten(TC_020513_DIN)
100
AcDbVertex
100
AcDb2dVertex
 10
122.2121800998008
 20
148.633745954553
 30
0.0
  0
VERTEX
  5
3B2
330
39C
100
AcDbEntity
  8
Sichtbare Kanten(TC_020513_DIN)
100
AcDbVertex
100
AcDb2dVertex
 10
122.2270073512351
 20
148.6117220383085
 30
0.0
  0
VERTEX
  5
3B3
330
39C
100
AcDbEntity
  8
Sichtbare Kanten(TC_020513_DIN)
100
AcDbVertex
100
AcDb2dVertex
 10
122.2408403971946
 20
148.5917246799863
 30
0.0
  0
VERTEX
  5
3B4
330
39C
100
AcDbEntity
  8
Sichtbare Kanten(TC_020513_DIN)
100
AcDbVertex
100
AcDb2dVertex
 10
122.2535743335044
 20
148.5737824898161
 30
0.0
  0
VERTEX
  5
3B5
330
39C
100
AcDbEntity
  8
Sichtbare Kanten(TC_020513_DIN)
100
AcDbVertex
100
AcDb2dVertex
 10
122.2650994876182
 20
148.5579181175626
 30
0.0
  0
VERTEX
  5
3B6
330
39C
100
AcDbEntity
  8
Sichtbare Kanten(TC_020513_DIN)
100
AcDbVertex
100
AcDb2dVertex
 10
122.2753038028037
 20
148.5441613655485
 30
0.0
  0
SEQEND
  5
39F
330
39C
100
AcDbEntity
  8
Sichtbare Kanten(TC_020513_DIN)
  0
POLYLINE
  5
3B7
330
37
100
AcDbEntity
  8
Sichtbare Kanten(TC_020513_DIN)
100
AcDb2dPolyline
 66
     1
 10
0.0
 20
0.0
 30
0.0
 70
   128
  0
VERTEX
  5
3B8
330
3B7
100
AcDbEntity
  8
Sichtbare Kanten(TC_020513_DIN)
100
AcDbVertex
100
AcDb2dVertex
 10
121.2016167262351
 20
151.3441610794462
 30
0.0
  0
VERTEX
  5
3B9
330
3B7
100
AcDbEntity
  8
Sichtbare Kanten(TC_020513_DIN)
100
AcDbVertex
100
AcDb2dVertex
 10
121.2292470553672
 20
151.3404989700712
 30
0.0
  0
VERTEX
  5
3BB
330
3B7
100
AcDbEntity
  8
Sichtbare Kanten(TC_020513_DIN)
100
AcDbVertex
100
AcDb2dVertex
 10
121.2568249324119
 20
151.3295507889188
 30
0.0
  0
VERTEX
  5
3BC
330
3B7
100
AcDbEntity
  8
Sichtbare Kanten(TC_020513_DIN)
100
AcDbVertex
100
AcDb2dVertex
 10
121.2843694308555
 20
151.3113689880766
 30
0.0
  0
VERTEX
  5
3BD
330
3B7
100
AcDbEntity
  8
Sichtbare Kanten(TC_020513_DIN)
100
AcDbVertex
100
AcDb2dVertex
 10
121.3118996241843
 20
151.2860107880033
 30
0.0
  0
VERTEX
  5
3BE
330
3B7
100
AcDbEntity
  8
Sichtbare Kanten(TC_020513_DIN)
100
AcDbVertex
100
AcDb2dVertex
 10
121.3394298175132
 20
151.2535310249723
 30
0.0
  0
VERTEX
  5
3BF
330
3B7
100
AcDbEntity
  8
Sichtbare Kanten(TC_020513_DIN)
100
AcDbVertex
100
AcDb2dVertex
 10
121.3669814685142
 20
151.2139833431638
 30
0.0
  0
VERTEX
  5
3C0
330
3B7
100
AcDbEntity
  8
Sichtbare Kanten(TC_020513_DIN)
100
AcDbVertex
100
AcDb2dVertex
 10
121.394568882302
 20
151.1674261551298
 30
0.0
  0
VERTEX
  5
3C1
330
3B7
100
AcDbEntity
  8
Sichtbare Kanten(TC_020513_DIN)
100
AcDbVertex
100
AcDb2dVertex
 10
121.422211132363
 20
151.1139190655149
 30
0.0
  0
VERTEX
  5
3C2
330
3B7
100
AcDbEntity
  8
Sichtbare Kanten(TC_020513_DIN)
100
AcDbVertex
100
AcDb2dVertex
 10
121.4498271563804
 20
151.0537398319639
 30
0.0
  0
VERTEX
  5
3C3
330
3B7
100
AcDbEntity
  8
Sichtbare Kanten(TC_020513_DIN)
100
AcDbVertex
100
AcDb2dVertex
 10
121.4773954966819
 20
150.9871232967771
 30
0.0
  0
VERTEX
  5
3C4
330
3B7
100
AcDbEntity
  8
Sichtbare Kanten(TC_020513_DIN)
100
AcDbVertex
100
AcDb2dVertex
 10
121.5049352267539
 20
150.9142256241239
 30
0.0
  0
VERTEX
  5
3C5
330
3B7
100
AcDbEntity
  8
Sichtbare Kanten(TC_020513_DIN)
100
AcDbVertex
100
AcDb2dVertex
 10
121.532463035897
 20
150.8352041702665
 30
0.0
  0
VERTEX
  5
3C6
330
3B7
100
AcDbEntity
  8
Sichtbare Kanten(TC_020513_DIN)
100
AcDbVertex
100
AcDb2dVertex
 10
121.5599979975974
 20
150.7502139072813
 30
0.0
  0
VERTEX
  5
3C7
330
3B7
100
AcDbEntity
  8
Sichtbare Kanten(TC_020513_DIN)
100
AcDbVertex
100
AcDb2dVertex
 10
121.5875568011558
 20
150.6594145756162
 30
0.0
  0
VERTEX
  5
3C8
330
3B7
100
AcDbEntity
  8
Sichtbare Kanten(TC_020513_DIN)
100
AcDbVertex
100
AcDb2dVertex
 10
121.6151561358726
 20
150.5629611473478
 30
0.0
  0
VERTEX
  5
3C9
330
3B7
100
AcDbEntity
  8
Sichtbare Kanten(TC_020513_DIN)
100
AcDbVertex
100
AcDb2dVertex
 10
121.642805538491
 20
150.4610538940824
 30
0.0
  0
VERTEX
  5
3CA
330
3B7
100
AcDbEntity
  8
Sichtbare Kanten(TC_020513_DIN)
100
AcDbVertex
100
AcDb2dVertex
 10
121.6704382518088
 20
150.3541815739073
 30
0.0
  0
VERTEX
  5
3CB
330
3B7
100
AcDbEntity
  8
Sichtbare Kanten(TC_020513_DIN)
100
AcDbVertex
100
AcDb2dVertex
 10
121.6980614283835
 20
150.242621944467
 30
0.0
  0
VERTEX
  5
3CC
330
3B7
100
AcDbEntity
  8
Sichtbare Kanten(TC_020513_DIN)
100
AcDbVertex
100
AcDb2dVertex
 10
121.7256917575156
 20
150.1265955429472
 30
0.0
  0
VERTEX
  5
3CD
330
3B7
100
AcDbEntity
  8
Sichtbare Kanten(TC_020513_DIN)
100
AcDbVertex
100
AcDb2dVertex
 10
121.753341160134
 20
150.0063324432768
 30
0.0
  0
VERTEX
  5
3CE
330
3B7
100
AcDbEntity
  8
Sichtbare Kanten(TC_020513_DIN)
100
AcDbVertex
100
AcDb2dVertex
 10
121.7809810260093
 20
149.8822904091276
 30
0.0
  0
VERTEX
  5
3CF
330
3B7
100
AcDbEntity
  8
Sichtbare Kanten(TC_020513_DIN)
100
AcDbVertex
100
AcDb2dVertex
 10
121.808604202584
 20
149.7548199158109
 30
0.0
  0
VERTEX
  5
3D0
330
3B7
100
AcDbEntity
  8
Sichtbare Kanten(TC_020513_DIN)
100
AcDbVertex
100
AcDb2dVertex
 10
121.8362297633445
 20
149.6241748791136
 30
0.0
  0
VERTEX
  5
3D1
330
3B7
100
AcDbEntity
  8
Sichtbare Kanten(TC_020513_DIN)
100
AcDbVertex
100
AcDb2dVertex
 10
121.8638767817771
 20
149.4906080227293
 30
0.0
  0
SEQEND
  5
3BA
330
3B7
100
AcDbEntity
  8
Sichtbare Kanten(TC_020513_DIN)
  0
LINE
  5
3D2
330
37
100
AcDbEntity
  8
Sichtbare Kanten(TC_020513_DIN)
100
AcDbLine
 10
121.2016159602326
 20
150.5601626720963
 30
0.0
 11
121.2016159602326
 21
151.3441615418153
 31
0.0
  0
LINE
  5
3D3
330
37
100
AcDbEntity
  8
Sichtbare Kanten(TC_020513_DIN)
100
AcDbLine
 10
121.2016159602326
 20
149.9441615418153
 30
0.0
 11
121.2016159602326
 21
150.5601626720963
 31
0.0
  0
POLYLINE
  5
3D4
330
37
100
AcDbEntity
  8
Sichtbare Kanten(TC_020513_DIN)
100
AcDb2dPolyline
 66
     1
 10
0.0
 20
0.0
 30
0.0
 70
   128
  0
VERTEX
  5
3D5
330
3D4
100
AcDbEntity
  8
Sichtbare Kanten(TC_020513_DIN)
100
AcDbVertex
100
AcDb2dVertex
 10
122.4671854594504
 20
137.9756814699568
 30
0.0
  0
VERTEX
  5
3D6
330
3D4
100
AcDbEntity
  8
Sichtbare Kanten(TC_020513_DIN)
100
AcDbVertex
100
AcDb2dVertex
 10
122.477013073281
 20
137.9988635044492
 30
0.0
  0
VERTEX
  5
3D8
330
3D4
100
AcDbEntity
  8
Sichtbare Kanten(TC_020513_DIN)
100
AcDbVertex
100
AcDb2dVertex
 10
122.4868383029258
 20
138.0222243528761
 30
0.0
  0
VERTEX
  5
3D9
330
3D4
100
AcDbEntity
  8
Sichtbare Kanten(TC_020513_DIN)
100
AcDbVertex
100
AcDb2dVertex
 10
122.496658764199
 20
138.0457574587263
 30
0.0
  0
VERTEX
  5
3DA
330
3D4
100
AcDbEntity
  8
Sichtbare Kanten(TC_020513_DIN)
100
AcDbVertex
100
AcDb2dVertex
 10
122.5064768412864
 20
138.0694568615354
 30
0.0
  0
VERTEX
  5
3DB
330
3D4
100
AcDbEntity
  8
Sichtbare Kanten(TC_020513_DIN)
100
AcDbVertex
100
AcDb2dVertex
 10
122.5162949183738
 20
138.0933171968855
 30
0.0
  0
VERTEX
  5
3DC
330
3D4
100
AcDbEntity
  8
Sichtbare Kanten(TC_020513_DIN)
100
AcDbVertex
100
AcDb2dVertex
 10
122.5261106112754
 20
138.1173319082655
 30
0.0
  0
VERTEX
  5
3DD
330
3D4
100
AcDbEntity
  8
Sichtbare Kanten(TC_020513_DIN)
100
AcDbVertex
100
AcDb2dVertex
 10
122.535926304177
 20
138.141495035211
 30
0.0
  0
VERTEX
  5
3DE
330
3D4
100
AcDbEntity
  8
Sichtbare Kanten(TC_020513_DIN)
100
AcDbVertex
100
AcDb2dVertex
 10
122.5457443812644
 20
138.1658012133039
 30
0.0
  0
VERTEX
  5
3DF
330
3D4
100
AcDbEntity
  8
Sichtbare Kanten(TC_020513_DIN)
100
AcDbVertex
100
AcDb2dVertex
 10
122.5555624583518
 20
138.1902438860334
 30
0.0
  0
VERTEX
  5
3E0
330
3D4
100
AcDbEntity
  8
Sichtbare Kanten(TC_020513_DIN)
100
AcDbVertex
100
AcDb2dVertex
 10
122.565382919625
 20
138.214817092935
 30
0.0
  0
VERTEX
  5
3E1
330
3D4
100
AcDbEntity
  8
Sichtbare Kanten(TC_020513_DIN)
100
AcDbVertex
100
AcDb2dVertex
 10
122.5752081492698
 20
138.2395148735441
 30
0.0
  0
VERTEX
  5
3E2
330
3D4
100
AcDbEntity
  8
Sichtbare Kanten(TC_020513_DIN)
100
AcDbVertex
100
AcDb2dVertex
 10
122.5850357631003
 20
138.2643318634428
 30
0.0
  0
VERTEX
  5
3E3
330
3D4
100
AcDbEntity
  8
Sichtbare Kanten(TC_020513_DIN)
100
AcDbVertex
100
AcDb2dVertex
 10
122.5948633769309
 20
138.2892489891447
 30
0.0
  0
VERTEX
  5
3E4
330
3D4
100
AcDbEntity
  8
Sichtbare Kanten(TC_020513_DIN)
100
AcDbVertex
100
AcDb2dVertex
 10
122.6046886065757
 20
138.3142471771635
 30
0.0
  0
VERTEX
  5
3E5
330
3D4
100
AcDbEntity
  8
Sichtbare Kanten(TC_020513_DIN)
100
AcDbVertex
100
AcDb2dVertex
 10
122.6145090678489
 20
138.3393216591276
 30
0.0
  0
VERTEX
  5
3E6
330
3D4
100
AcDbEntity
  8
Sichtbare Kanten(TC_020513_DIN)
100
AcDbVertex
100
AcDb2dVertex
 10
122.6243271449363
 20
138.3644646864332
 30
0.0
  0
VERTEX
  5
3E7
330
3D4
100
AcDbEntity
  8
Sichtbare Kanten(TC_020513_DIN)
100
AcDbVertex
100
AcDb2dVertex
 10
122.6341452220237
 20
138.3896708946623
 30
0.0
  0
VERTEX
  5
3E8
330
3D4
100
AcDbEntity
  8
Sichtbare Kanten(TC_020513_DIN)
100
AcDbVertex
100
AcDb2dVertex
 10
122.6439609149253
 20
138.4149337273039
 30
0.0
  0
VERTEX
  5
3E9
330
3D4
100
AcDbEntity
  8
Sichtbare Kanten(TC_020513_DIN)
100
AcDbVertex
100
AcDb2dVertex
 10
122.6537766078269
 20
138.4402466278471
 30
0.0
  0
VERTEX
  5
3EA
330
3D4
100
AcDbEntity
  8
Sichtbare Kanten(TC_020513_DIN)
100
AcDbVertex
100
AcDb2dVertex
 10
122.6635946849143
 20
138.4656036358274
 30
0.0
  0
VERTEX
  5
3EB
330
3D4
100
AcDbEntity
  8
Sichtbare Kanten(TC_020513_DIN)
100
AcDbVertex
100
AcDb2dVertex
 10
122.6734127620017
 20
138.4909987907804
 30
0.0
  0
VERTEX
  5
3EC
330
3D4
100
AcDbEntity
  8
Sichtbare Kanten(TC_020513_DIN)
100
AcDbVertex
100
AcDb2dVertex
 10
122.6832332232749
 20
138.5164249401487
 30
0.0
  0
VERTEX
  5
3ED
330
3D4
100
AcDbEntity
  8
Sichtbare Kanten(TC_020513_DIN)
100
AcDbVertex
100
AcDb2dVertex
 10
122.6930584529197
 20
138.5418767195143
 30
0.0
  0
VERTEX
  5
3EE
330
3D4
100
AcDbEntity
  8
Sichtbare Kanten(TC_020513_DIN)
100
AcDbVertex
100
AcDb2dVertex
 10
122.7028860667502
 20
138.5673469763197
 30
0.0
  0
SEQEND
  5
3D7
330
3D4
100
AcDbEntity
  8
Sichtbare Kanten(TC_020513_DIN)
  0
POLYLINE
  5
3EF
330
37
100
AcDbEntity
  8
Sichtbare Kanten(TC_020513_DIN)
100
AcDb2dPolyline
 66
     1
 10
0.0
 20
0.0
 30
0.0
 70
   128
  0
VERTEX
  5
3F0
330
3EF
100
AcDbEntity
  8
Sichtbare Kanten(TC_020513_DIN)
100
AcDbVertex
100
AcDb2dVertex
 10
122.7028860667502
 20
138.5673469763197
 30
0.0
  0
VERTEX
  5
3F1
330
3EF
100
AcDbEntity
  8
Sichtbare Kanten(TC_020513_DIN)
100
AcDbVertex
100
AcDb2dVertex
 10
122.6930584529197
 20
138.5164058666624
 30
0.0
  0
VERTEX
  5
3F3
330
3EF
100
AcDbEntity
  8
Sichtbare Kanten(TC_020513_DIN)
100
AcDbVertex
100
AcDb2dVertex
 10
122.6832332232749
 20
138.4655029039778
 30
0.0
  0
VERTEX
  5
3F4
330
3EF
100
AcDbEntity
  8
Sichtbare Kanten(TC_020513_DIN)
100
AcDbVertex
100
AcDb2dVertex
 10
122.6734127620017
 20
138.4146500091947
 30
0.0
  0
VERTEX
  5
3F5
330
3EF
100
AcDbEntity
  8
Sichtbare Kanten(TC_020513_DIN)
100
AcDbVertex
100
AcDb2dVertex
 10
122.6635946849143
 20
138.3638602953352
 30
0.0
  0
VERTEX
  5
3F6
330
3EF
100
AcDbEntity
  8
Sichtbare Kanten(TC_020513_DIN)
100
AcDbVertex
100
AcDb2dVertex
 10
122.6537766078269
 20
138.3131462793745
 30
0.0
  0
VERTEX
  5
3F7
330
3EF
100
AcDbEntity
  8
Sichtbare Kanten(TC_020513_DIN)
100
AcDbVertex
100
AcDb2dVertex
 10
122.6439609149253
 20
138.2625198822416
 30
0.0
  0
VERTEX
  5
3F8
330
3EF
100
AcDbEntity
  8
Sichtbare Kanten(TC_020513_DIN)
100
AcDbVertex
100
AcDb2dVertex
 10
122.6341452220237
 20
138.2119942169584
 30
0.0
  0
VERTEX
  5
3F9
330
3EF
100
AcDbEntity
  8
Sichtbare Kanten(TC_020513_DIN)
100
AcDbVertex
100
AcDb2dVertex
 10
122.6243271449363
 20
138.1615823965467
 30
0.0
  0
VERTEX
  5
3FA
330
3EF
100
AcDbEntity
  8
Sichtbare Kanten(TC_020513_DIN)
100
AcDbVertex
100
AcDb2dVertex
 10
122.6145090678489
 20
138.1112957458891
 30
0.0
  0
VERTEX
  5
3FB
330
3EF
100
AcDbEntity
  8
Sichtbare Kanten(TC_020513_DIN)
100
AcDbVertex
100
AcDb2dVertex
 10
122.6046886065757
 20
138.0611473780073
 30
0.0
  0
VERTEX
  5
3FC
330
3EF
100
AcDbEntity
  8
Sichtbare Kanten(TC_020513_DIN)
100
AcDbVertex
100
AcDb2dVertex
 10
122.5948633769309
 20
138.0111504059232
 30
0.0
  0
VERTEX
  5
3FD
330
3EF
100
AcDbEntity
  8
Sichtbare Kanten(TC_020513_DIN)
100
AcDbVertex
100
AcDb2dVertex
 10
122.5850357631003
 20
137.9613161545194
 30
0.0
  0
VERTEX
  5
3FE
330
3EF
100
AcDbEntity
  8
Sichtbare Kanten(TC_020513_DIN)
100
AcDbVertex
100
AcDb2dVertex
 10
122.5752081492698
 20
137.9116827707685
 30
0.0
  0
VERTEX
  5
3FF
330
3EF
100
AcDbEntity
  8
Sichtbare Kanten(TC_020513_DIN)
100
AcDbVertex
100
AcDb2dVertex
 10
122.565382919625
 20
137.8622872095503
 30
0.0
  0
VERTEX
  5
400
330
3EF
100
AcDbEntity
  8
Sichtbare Kanten(TC_020513_DIN)
100
AcDbVertex
100
AcDb2dVertex
 10
122.5555624583518
 20
137.8131407957472
 30
0.0
  0
VERTEX
  5
401
330
3EF
100
AcDbEntity
  8
Sichtbare Kanten(TC_020513_DIN)
100
AcDbVertex
100
AcDb2dVertex
 10
122.5457443812644
 20
137.7642554502882
 30
0.0
  0
VERTEX
  5
402
330
3EF
100
AcDbEntity
  8
Sichtbare Kanten(TC_020513_DIN)
100
AcDbVertex
100
AcDb2dVertex
 10
122.535926304177
 20
137.7156433921255
 30
0.0
  0
VERTEX
  5
403
330
3EF
100
AcDbEntity
  8
Sichtbare Kanten(TC_020513_DIN)
100
AcDbVertex
100
AcDb2dVertex
 10
122.5261106112754
 20
137.6673168402113
 30
0.0
  0
VERTEX
  5
404
330
3EF
100
AcDbEntity
  8
Sichtbare Kanten(TC_020513_DIN)
100
AcDbVertex
100
AcDb2dVertex
 10
122.5162949183738
 20
137.619287119428
 30
0.0
  0
VERTEX
  5
405
330
3EF
100
AcDbEntity
  8
Sichtbare Kanten(TC_020513_DIN)
100
AcDbVertex
100
AcDb2dVertex
 10
122.5064768412864
 20
137.5715667467512
 30
0.0
  0
VERTEX
  5
406
330
3EF
100
AcDbEntity
  8
Sichtbare Kanten(TC_020513_DIN)
100
AcDbVertex
100
AcDb2dVertex
 10
122.496658764199
 20
137.5241676431097
 30
0.0
  0
VERTEX
  5
407
330
3EF
100
AcDbEntity
  8
Sichtbare Kanten(TC_020513_DIN)
100
AcDbVertex
100
AcDb2dVertex
 10
122.4868383029258
 20
137.4771014314092
 30
0.0
  0
VERTEX
  5
408
330
3EF
100
AcDbEntity
  8
Sichtbare Kanten(TC_020513_DIN)
100
AcDbVertex
100
AcDb2dVertex
 10
122.477013073281
 20
137.4303803306021
 30
0.0
  0
VERTEX
  5
409
330
3EF
100
AcDbEntity
  8
Sichtbare Kanten(TC_020513_DIN)
100
AcDbVertex
100
AcDb2dVertex
 10
122.4671854594504
 20
137.3840159635938
 30
0.0
  0
SEQEND
  5
3F2
330
3EF
100
AcDbEntity
  8
Sichtbare Kanten(TC_020513_DIN)
  0
LINE
  5
40A
330
37
100
AcDbEntity
  8
Sichtbare Kanten(TC_020513_DIN)
100
AcDbLine
 10
122.4671852412759
 20
137.7153471667359
 30
0.0
 11
122.4671852412759
 21
137.9756816442901
 31
0.0
  0
LINE
  5
40B
330
37
100
AcDbEntity
  8
Sichtbare Kanten(TC_020513_DIN)
100
AcDbLine
 10
122.4671852412759
 20
137.3840160778532
 30
0.0
 11
122.4671852412759
 21
137.7153471667359
 31
0.0
  0
POLYLINE
  5
40C
330
37
100
AcDbEntity
  8
Sichtbare Kanten(TC_020513_DIN)
100
AcDb2dPolyline
 66
     1
 10
0.0
 20
0.0
 30
0.0
 70
   128
  0
VERTEX
  5
40D
330
40C
100
AcDbEntity
  8
Sichtbare Kanten(TC_020513_DIN)
100
AcDbVertex
100
AcDb2dVertex
 10
135.5794038394248
 20
150.5627799492277
 30
0.0
  0
VERTEX
  5
40E
330
40C
100
AcDbEntity
  8
Sichtbare Kanten(TC_020513_DIN)
100
AcDbVertex
100
AcDb2dVertex
 10
135.5793299296653
 20
150.5538523655332
 30
0.0
  0
VERTEX
  5
410
330
40C
100
AcDbEntity
  8
Sichtbare Kanten(TC_020513_DIN)
100
AcDbVertex
100
AcDb2dVertex
 10
135.5791105845725
 20
150.5449235897459
 30
0.0
  0
VERTEX
  5
411
330
40C
100
AcDbEntity
  8
Sichtbare Kanten(TC_020513_DIN)
100
AcDbVertex
100
AcDb2dVertex
 10
135.5787458041465
 20
150.5359960060514
 30
0.0
  0
VERTEX
  5
412
330
40C
100
AcDbEntity
  8
Sichtbare Kanten(TC_020513_DIN)
100
AcDbVertex
100
AcDb2dVertex
 10
135.5782332042014
 20
150.527068422357
 30
0.0
  0
VERTEX
  5
413
330
40C
100
AcDbEntity
  8
Sichtbare Kanten(TC_020513_DIN)
100
AcDbVertex
100
AcDb2dVertex
 10
135.5775751689231
 20
150.5181420307554
 30
0.0
  0
VERTEX
  5
414
330
40C
100
AcDbEntity
  8
Sichtbare Kanten(TC_020513_DIN)
100
AcDbVertex
100
AcDb2dVertex
 10
135.5767716983115
 20
150.5092156391538
 30
0.0
  0
VERTEX
  5
415
330
40C
100
AcDbEntity
  8
Sichtbare Kanten(TC_020513_DIN)
100
AcDbVertex
100
AcDb2dVertex
 10
135.5758204081809
 20
150.5002880554594
 30
0.0
  0
VERTEX
  5
416
330
40C
100
AcDbEntity
  8
Sichtbare Kanten(TC_020513_DIN)
100
AcDbVertex
100
AcDb2dVertex
 10
135.574723682717
 20
150.4913616638578
 30
0.0
  0
VERTEX
  5
417
330
40C
100
AcDbEntity
  8
Sichtbare Kanten(TC_020513_DIN)
100
AcDbVertex
100
AcDb2dVertex
 10
135.5734815219199
 20
150.4824340801634
 30
0.0
  0
VERTEX
  5
418
330
40C
100
AcDbEntity
  8
Sichtbare Kanten(TC_020513_DIN)
100
AcDbVertex
100
AcDb2dVertex
 10
135.5720939257895
 20
150.4735064964689
 30
0.0
  0
VERTEX
  5
419
330
40C
100
AcDbEntity
  8
Sichtbare Kanten(TC_020513_DIN)
100
AcDbVertex
100
AcDb2dVertex
 10
135.5705585101401
 20
150.4645777206816
 30
0.0
  0
VERTEX
  5
41A
330
40C
100
AcDbEntity
  8
Sichtbare Kanten(TC_020513_DIN)
100
AcDbVertex
100
AcDb2dVertex
 10
135.5688800433433
 20
150.4556501369871
 30
0.0
  0
VERTEX
  5
41B
330
40C
100
AcDbEntity
  8
Sichtbare Kanten(TC_020513_DIN)
100
AcDbVertex
100
AcDb2dVertex
 10
135.5670537570274
 20
150.4467213611997
 30
0.0
  0
VERTEX
  5
41C
330
40C
100
AcDbEntity
  8
Sichtbare Kanten(TC_020513_DIN)
100
AcDbVertex
100
AcDb2dVertex
 10
135.5650820353782
 20
150.4377925854124
 30
0.0
  0
VERTEX
  5
41D
330
40C
100
AcDbEntity
  8
Sichtbare Kanten(TC_020513_DIN)
100
AcDbVertex
100
AcDb2dVertex
 10
135.5629648783958
 20
150.4288650017179
 30
0.0
  0
VERTEX
  5
41E
330
40C
100
AcDbEntity
  8
Sichtbare Kanten(TC_020513_DIN)
100
AcDbVertex
100
AcDb2dVertex
 10
135.5607022860801
 20
150.4199386101164
 30
0.0
  0
VERTEX
  5
41F
330
40C
100
AcDbEntity
  8
Sichtbare Kanten(TC_020513_DIN)
100
AcDbVertex
100
AcDb2dVertex
 10
135.5582942584312
 20
150.4110110264219
 30
0.0
  0
VERTEX
  5
420
330
40C
100
AcDbEntity
  8
Sichtbare Kanten(TC_020513_DIN)
100
AcDbVertex
100
AcDb2dVertex
 10
135.5557431796348
 20
150.4020846348203
 30
0.0
  0
VERTEX
  5
421
330
40C
100
AcDbEntity
  8
Sichtbare Kanten(TC_020513_DIN)
100
AcDbVertex
100
AcDb2dVertex
 10
135.5530442813193
 20
150.3931570511259
 30
0.0
  0
VERTEX
  5
422
330
40C
100
AcDbEntity
  8
Sichtbare Kanten(TC_020513_DIN)
100
AcDbVertex
100
AcDb2dVertex
 10
135.5502023318564
 20
150.3842306595243
 30
0.0
  0
VERTEX
  5
423
330
40C
100
AcDbEntity
  8
Sichtbare Kanten(TC_020513_DIN)
100
AcDbVertex
100
AcDb2dVertex
 10
135.5472149470603
 20
150.3753030758299
 30
0.0
  0
VERTEX
  5
424
330
40C
100
AcDbEntity
  8
Sichtbare Kanten(TC_020513_DIN)
100
AcDbVertex
100
AcDb2dVertex
 10
135.5440845111167
 20
150.3663754921354
 30
0.0
  0
VERTEX
  5
425
330
40C
100
AcDbEntity
  8
Sichtbare Kanten(TC_020513_DIN)
100
AcDbVertex
100
AcDb2dVertex
 10
135.5408062556541
 20
150.357447908441
 30
0.0
  0
VERTEX
  5
426
330
40C
100
AcDbEntity
  8
Sichtbare Kanten(TC_020513_DIN)
100
AcDbVertex
100
AcDb2dVertex
 10
135.5373873332297
 20
150.3485191326536
 30
0.0
  0
SEQEND
  5
40F
330
40C
100
AcDbEntity
  8
Sichtbare Kanten(TC_020513_DIN)
  0
LINE
  5
427
330
37
100
AcDbEntity
  8
Sichtbare Kanten(TC_020513_DIN)
100
AcDbLine
 10
134.7954047985307
 20
150.562780488421
 30
0.0
 11
135.5794028857505
 21
150.562780488421
 31
0.0
  0
LINE
  5
428
330
37
100
AcDbEntity
  8
Sichtbare Kanten(TC_020513_DIN)
100
AcDbLine
 10
134.1794028857505
 20
150.562780488421
 30
0.0
 11
134.7954047985307
 21
150.562780488421
 31
0.0
  0
POLYLINE
  5
429
330
37
100
AcDbEntity
  8
Sichtbare Kanten(TC_020513_DIN)
100
AcDb2dPolyline
 66
     1
 10
0.0
 20
0.0
 30
0.0
 70
   128
  0
VERTEX
  5
42A
330
429
100
AcDbEntity
  8
Sichtbare Kanten(TC_020513_DIN)
100
AcDbVertex
100
AcDb2dVertex
 10
134.1583957293784
 20
150.3485191326536
 30
0.0
  0
VERTEX
  5
42B
330
429
100
AcDbEntity
  8
Sichtbare Kanten(TC_020513_DIN)
100
AcDbVertex
100
AcDb2dVertex
 10
134.1601051905906
 20
150.357447908441
 30
0.0
  0
VERTEX
  5
42D
330
429
100
AcDbEntity
  8
Sichtbare Kanten(TC_020513_DIN)
100
AcDbVertex
100
AcDb2dVertex
 10
134.161743126229
 20
150.3663754921354
 30
0.0
  0
VERTEX
  5
42E
330
429
100
AcDbEntity
  8
Sichtbare Kanten(TC_020513_DIN)
100
AcDbVertex
100
AcDb2dVertex
 10
134.1633095362937
 20
150.3753030758299
 30
0.0
  0
VERTEX
  5
42F
330
429
100
AcDbEntity
  8
Sichtbare Kanten(TC_020513_DIN)
100
AcDbVertex
100
AcDb2dVertex
 10
134.1648020365989
 20
150.3842306595243
 30
0.0
  0
VERTEX
  5
430
330
429
100
AcDbEntity
  8
Sichtbare Kanten(TC_020513_DIN)
100
AcDbVertex
100
AcDb2dVertex
 10
134.1662230113303
 20
150.3931570511259
 30
0.0
  0
VERTEX
  5
431
330
429
100
AcDbEntity
  8
Sichtbare Kanten(TC_020513_DIN)
100
AcDbVertex
100
AcDb2dVertex
 10
134.167572460488
 20
150.4020846348203
 30
0.0
  0
VERTEX
  5
432
330
429
100
AcDbEntity
  8
Sichtbare Kanten(TC_020513_DIN)
100
AcDbVertex
100
AcDb2dVertex
 10
134.1688479998862
 20
150.4110110264219
 30
0.0
  0
VERTEX
  5
433
330
429
100
AcDbEntity
  8
Sichtbare Kanten(TC_020513_DIN)
100
AcDbVertex
100
AcDb2dVertex
 10
134.1700520137107
 20
150.4199386101164
 30
0.0
  0
VERTEX
  5
434
330
429
100
AcDbEntity
  8
Sichtbare Kanten(TC_020513_DIN)
100
AcDbVertex
100
AcDb2dVertex
 10
134.1711845019614
 20
150.4288650017179
 30
0.0
  0
VERTEX
  5
435
330
429
100
AcDbEntity
  8
Sichtbare Kanten(TC_020513_DIN)
100
AcDbVertex
100
AcDb2dVertex
 10
134.1722430804526
 20
150.4377925854124
 30
0.0
  0
VERTEX
  5
436
330
429
100
AcDbEntity
  8
Sichtbare Kanten(TC_020513_DIN)
100
AcDbVertex
100
AcDb2dVertex
 10
134.1732277491843
 20
150.4467213611997
 30
0.0
  0
VERTEX
  5
437
330
429
100
AcDbEntity
  8
Sichtbare Kanten(TC_020513_DIN)
100
AcDbVertex
100
AcDb2dVertex
 10
134.1741408923423
 20
150.4556501369871
 30
0.0
  0
VERTEX
  5
438
330
429
100
AcDbEntity
  8
Sichtbare Kanten(TC_020513_DIN)
100
AcDbVertex
100
AcDb2dVertex
 10
134.1749801257407
 20
150.4645777206816
 30
0.0
  0
VERTEX
  5
439
330
429
100
AcDbEntity
  8
Sichtbare Kanten(TC_020513_DIN)
100
AcDbVertex
100
AcDb2dVertex
 10
134.1757478335654
 20
150.4735064964689
 30
0.0
  0
VERTEX
  5
43A
330
429
100
AcDbEntity
  8
Sichtbare Kanten(TC_020513_DIN)
100
AcDbVertex
100
AcDb2dVertex
 10
134.1764416316306
 20
150.4824340801634
 30
0.0
  0
VERTEX
  5
43B
330
429
100
AcDbEntity
  8
Sichtbare Kanten(TC_020513_DIN)
100
AcDbVertex
100
AcDb2dVertex
 10
134.1770639041221
 20
150.4913616638578
 30
0.0
  0
VERTEX
  5
43C
330
429
100
AcDbEntity
  8
Sichtbare Kanten(TC_020513_DIN)
100
AcDbVertex
100
AcDb2dVertex
 10
134.177612266854
 20
150.5002880554594
 30
0.0
  0
VERTEX
  5
43D
330
429
100
AcDbEntity
  8
Sichtbare Kanten(TC_020513_DIN)
100
AcDbVertex
100
AcDb2dVertex
 10
134.1780867198264
 20
150.5092156391538
 30
0.0
  0
VERTEX
  5
43E
330
429
100
AcDbEntity
  8
Sichtbare Kanten(TC_020513_DIN)
100
AcDbVertex
100
AcDb2dVertex
 10
134.1784896472251
 20
150.5181420307554
 30
0.0
  0
VERTEX
  5
43F
330
429
100
AcDbEntity
  8
Sichtbare Kanten(TC_020513_DIN)
100
AcDbVertex
100
AcDb2dVertex
 10
134.1788186648642
 20
150.527068422357
 30
0.0
  0
VERTEX
  5
440
330
429
100
AcDbEntity
  8
Sichtbare Kanten(TC_020513_DIN)
100
AcDbVertex
100
AcDb2dVertex
 10
134.1790737727439
 20
150.5359960060514
 30
0.0
  0
VERTEX
  5
441
330
429
100
AcDbEntity
  8
Sichtbare Kanten(TC_020513_DIN)
100
AcDbVertex
100
AcDb2dVertex
 10
134.1792573550498
 20
150.5449235897459
 30
0.0
  0
VERTEX
  5
442
330
429
100
AcDbEntity
  8
Sichtbare Kanten(TC_020513_DIN)
100
AcDbVertex
100
AcDb2dVertex
 10
134.1793670275962
 20
150.5538523655332
 30
0.0
  0
VERTEX
  5
443
330
429
100
AcDbEntity
  8
Sichtbare Kanten(TC_020513_DIN)
100
AcDbVertex
100
AcDb2dVertex
 10
134.179402790383
 20
150.5627799492277
 30
0.0
  0
SEQEND
  5
42C
330
429
100
AcDbEntity
  8
Sichtbare Kanten(TC_020513_DIN)
  0
POLYLINE
  5
444
330
37
100
AcDbEntity
  8
Sichtbare Kanten(TC_020513_DIN)
100
AcDb2dPolyline
 66
     1
 10
0.0
 20
0.0
 30
0.0
 70
   128
  0
VERTEX
  5
445
330
444
100
AcDbEntity
  8
Sichtbare Kanten(TC_020513_DIN)
100
AcDbVertex
100
AcDb2dVertex
 10
135.5373873332297
 20
150.3485191326536
 30
0.0
  0
VERTEX
  5
446
330
444
100
AcDbEntity
  8
Sichtbare Kanten(TC_020513_DIN)
100
AcDbVertex
100
AcDb2dVertex
 10
135.5337466815269
 20
150.3394890289701
 30
0.0
  0
VERTEX
  5
448
330
444
100
AcDbEntity
  8
Sichtbare Kanten(TC_020513_DIN)
100
AcDbVertex
100
AcDb2dVertex
 10
135.5294360736167
 20
150.3294754486479
 30
0.0
  0
VERTEX
  5
449
330
444
100
AcDbEntity
  8
Sichtbare Kanten(TC_020513_DIN)
100
AcDbVertex
100
AcDb2dVertex
 10
135.5243768313682
 20
150.3186119060911
 30
0.0
  0
VERTEX
  5
44A
330
444
100
AcDbEntity
  8
Sichtbare Kanten(TC_020513_DIN)
100
AcDbVertex
100
AcDb2dVertex
 10
135.5184878924644
 20
150.3070366840757
 30
0.0
  0
VERTEX
  5
44B
330
444
100
AcDbEntity
  8
Sichtbare Kanten(TC_020513_DIN)
100
AcDbVertex
100
AcDb2dVertex
 10
135.5116858104026
 20
150.2948809128202
 30
0.0
  0
VERTEX
  5
44C
330
444
100
AcDbEntity
  8
Sichtbare Kanten(TC_020513_DIN)
100
AcDbVertex
100
AcDb2dVertex
 10
135.503889522866
 20
150.2822840671934
 30
0.0
  0
VERTEX
  5
44D
330
444
100
AcDbEntity
  8
Sichtbare Kanten(TC_020513_DIN)
100
AcDbVertex
100
AcDb2dVertex
 10
135.4950203517234
 20
150.2693772774137
 30
0.0
  0
VERTEX
  5
44E
330
444
100
AcDbEntity
  8
Sichtbare Kanten(TC_020513_DIN)
100
AcDbVertex
100
AcDb2dVertex
 10
135.484997234658
 20
150.2562988262571
 30
0.0
  0
VERTEX
  5
44F
330
444
100
AcDbEntity
  8
Sichtbare Kanten(TC_020513_DIN)
100
AcDbVertex
100
AcDb2dVertex
 10
135.473736725167
 20
150.2431834202207
 30
0.0
  0
VERTEX
  5
450
330
444
100
AcDbEntity
  8
Sichtbare Kanten(TC_020513_DIN)
100
AcDbVertex
100
AcDb2dVertex
 10
135.4611577609336
 20
150.2301645737089
 30
0.0
  0
VERTEX
  5
451
330
444
100
AcDbEntity
  8
Sichtbare Kanten(TC_020513_DIN)
100
AcDbVertex
100
AcDb2dVertex
 10
135.4471816638266
 20
150.2173793774046
 30
0.0
  0
VERTEX
  5
452
330
444
100
AcDbEntity
  8
Sichtbare Kanten(TC_020513_DIN)
100
AcDbVertex
100
AcDb2dVertex
 10
135.4317273715293
 20
150.2049613457121
 30
0.0
  0
VERTEX
  5
453
330
444
100
AcDbEntity
  8
Sichtbare Kanten(TC_020513_DIN)
100
AcDbVertex
100
AcDb2dVertex
 10
135.4147114375388
 20
150.1930475693144
 30
0.0
  0
VERTEX
  5
454
330
444
100
AcDbEntity
  8
Sichtbare Kanten(TC_020513_DIN)
100
AcDbVertex
100
AcDb2dVertex
 10
135.3960527995383
 20
150.1817727547086
 30
0.0
  0
VERTEX
  5
455
330
444
100
AcDbEntity
  8
Sichtbare Kanten(TC_020513_DIN)
100
AcDbVertex
100
AcDb2dVertex
 10
135.3759874919211
 20
150.1714063148893
 30
0.0
  0
VERTEX
  5
456
330
444
100
AcDbEntity
  8
Sichtbare Kanten(TC_020513_DIN)
100
AcDbVertex
100
AcDb2dVertex
 10
135.3548540690696
 20
150.1621497135557
 30
0.0
  0
VERTEX
  5
457
330
444
100
AcDbEntity
  8
Sichtbare Kanten(TC_020513_DIN)
100
AcDbVertex
100
AcDb2dVertex
 10
135.332659683541
 20
150.1539993744291
 30
0.0
  0
VERTEX
  5
458
330
444
100
AcDbEntity
  8
Sichtbare Kanten(TC_020513_DIN)
100
AcDbVertex
100
AcDb2dVertex
 10
135.3094162562644
 20
150.1469481449522
 30
0.0
  0
VERTEX
  5
459
330
444
100
AcDbEntity
  8
Sichtbare Kanten(TC_020513_DIN)
100
AcDbVertex
100
AcDb2dVertex
 10
135.2851309397971
 20
150.140994833032
 30
0.0
  0
VERTEX
  5
45A
330
444
100
AcDbEntity
  8
Sichtbare Kanten(TC_020513_DIN)
100
AcDbVertex
100
AcDb2dVertex
 10
135.2598180392539
 20
150.1361334782041
 30
0.0
  0
VERTEX
  5
45B
330
444
100
AcDbEntity
  8
Sichtbare Kanten(TC_020513_DIN)
100
AcDbVertex
100
AcDb2dVertex
 10
135.2334847071921
 20
150.1323605041898
 30
0.0
  0
VERTEX
  5
45C
330
444
100
AcDbEntity
  8
Sichtbare Kanten(TC_020513_DIN)
100
AcDbVertex
100
AcDb2dVertex
 10
135.206140480355
 20
150.1296711426176
 30
0.0
  0
VERTEX
  5
45D
330
444
100
AcDbEntity
  8
Sichtbare Kanten(TC_020513_DIN)
100
AcDbVertex
100
AcDb2dVertex
 10
135.1777972796714
 20
150.1280606251158
 30
0.0
  0
VERTEX
  5
45E
330
444
100
AcDbEntity
  8
Sichtbare Kanten(TC_020513_DIN)
100
AcDbVertex
100
AcDb2dVertex
 10
135.1484622576987
 20
150.1275241833128
 30
0.0
  0
SEQEND
  5
447
330
444
100
AcDbEntity
  8
Sichtbare Kanten(TC_020513_DIN)
  0
POLYLINE
  5
45F
330
37
100
AcDbEntity
  8
Sichtbare Kanten(TC_020513_DIN)
100
AcDb2dPolyline
 66
     1
 10
0.0
 20
0.0
 30
0.0
 70
   128
  0
VERTEX
  5
460
330
45F
100
AcDbEntity
  8
Sichtbare Kanten(TC_020513_DIN)
100
AcDbVertex
100
AcDb2dVertex
 10
133.96393199952
 20
150.1275241833128
 30
0.0
  0
VERTEX
  5
461
330
45F
100
AcDbEntity
  8
Sichtbare Kanten(TC_020513_DIN)
100
AcDbVertex
100
AcDb2dVertex
 10
133.9781989672935
 20
150.1280332069792
 30
0.0
  0
VERTEX
  5
463
330
45F
100
AcDbEntity
  8
Sichtbare Kanten(TC_020513_DIN)
100
AcDbVertex
100
AcDb2dVertex
 10
133.9919461825644
 20
150.1295543175138
 30
0.0
  0
VERTEX
  5
464
330
45F
100
AcDbEntity
  8
Sichtbare Kanten(TC_020513_DIN)
100
AcDbVertex
100
AcDb2dVertex
 10
134.005173645333
 20
150.1320767860807
 30
0.0
  0
VERTEX
  5
465
330
45F
100
AcDbEntity
  8
Sichtbare Kanten(TC_020513_DIN)
100
AcDbVertex
100
AcDb2dVertex
 10
134.0178813555991
 20
150.1355886917509
 30
0.0
  0
VERTEX
  5
466
330
45F
100
AcDbEntity
  8
Sichtbare Kanten(TC_020513_DIN)
100
AcDbVertex
100
AcDb2dVertex
 10
134.030066929177
 20
150.1400816898741
 30
0.0
  0
VERTEX
  5
467
330
45F
100
AcDbEntity
  8
Sichtbare Kanten(TC_020513_DIN)
100
AcDbVertex
100
AcDb2dVertex
 10
134.0417327502524
 20
150.1455450516142
 30
0.0
  0
VERTEX
  5
468
330
45F
100
AcDbEntity
  8
Sichtbare Kanten(TC_020513_DIN)
100
AcDbVertex
100
AcDb2dVertex
 10
134.0528788188254
 20
150.1519656639494
 30
0.0
  0
VERTEX
  5
469
330
45F
100
AcDbEntity
  8
Sichtbare Kanten(TC_020513_DIN)
100
AcDbVertex
100
AcDb2dVertex
 10
134.063505134896
 20
150.1593363743223
 30
0.0
  0
VERTEX
  5
46A
330
45F
100
AcDbEntity
  8
Sichtbare Kanten(TC_020513_DIN)
100
AcDbVertex
100
AcDb2dVertex
 10
134.0736093142783
 20
150.1676440697111
 30
0.0
  0
VERTEX
  5
46B
330
45F
100
AcDbEntity
  8
Sichtbare Kanten(TC_020513_DIN)
100
AcDbVertex
100
AcDb2dVertex
 10
134.0831818202292
 20
150.1768672924436
 30
0.0
  0
VERTEX
  5
46C
330
45F
100
AcDbEntity
  8
Sichtbare Kanten(TC_020513_DIN)
100
AcDbVertex
100
AcDb2dVertex
 10
134.0921916583335
 20
150.1869512062467
 30
0.0
  0
VERTEX
  5
46D
330
45F
100
AcDbEntity
  8
Sichtbare Kanten(TC_020513_DIN)
100
AcDbVertex
100
AcDb2dVertex
 10
134.1006531337058
 20
150.1978683929838
 30
0.0
  0
VERTEX
  5
46E
330
45F
100
AcDbEntity
  8
Sichtbare Kanten(TC_020513_DIN)
100
AcDbVertex
100
AcDb2dVertex
 10
134.1085781672751
 20
150.2095950107969
 30
0.0
  0
VERTEX
  5
46F
330
45F
100
AcDbEntity
  8
Sichtbare Kanten(TC_020513_DIN)
100
AcDbVertex
100
AcDb2dVertex
 10
134.1159810641562
 20
150.2221107941069
 30
0.0
  0
VERTEX
  5
470
330
45F
100
AcDbEntity
  8
Sichtbare Kanten(TC_020513_DIN)
100
AcDbVertex
100
AcDb2dVertex
 10
134.1228761294639
 20
150.2353907089628
 30
0.0
  0
VERTEX
  5
471
330
45F
100
AcDbEntity
  8
Sichtbare Kanten(TC_020513_DIN)
100
AcDbVertex
100
AcDb2dVertex
 10
134.1292442897117
 20
150.2493191223539
 30
0.0
  0
VERTEX
  5
472
330
45F
100
AcDbEntity
  8
Sichtbare Kanten(TC_020513_DIN)
100
AcDbVertex
100
AcDb2dVertex
 10
134.1349186518943
 20
150.2633560161985
 30
0.0
  0
VERTEX
  5
473
330
45F
100
AcDbEntity
  8
Sichtbare Kanten(TC_020513_DIN)
100
AcDbVertex
100
AcDb2dVertex
 10
134.1399230578696
 20
150.277268932382
 30
0.0
  0
VERTEX
  5
474
330
45F
100
AcDbEntity
  8
Sichtbare Kanten(TC_020513_DIN)
100
AcDbVertex
100
AcDb2dVertex
 10
134.1443004229819
 20
150.2908862095274
 30
0.0
  0
VERTEX
  5
475
330
45F
100
AcDbEntity
  8
Sichtbare Kanten(TC_020513_DIN)
100
AcDbVertex
100
AcDb2dVertex
 10
134.1480960467612
 20
150.3040361862577
 30
0.0
  0
VERTEX
  5
476
330
45F
100
AcDbEntity
  8
Sichtbare Kanten(TC_020513_DIN)
100
AcDbVertex
100
AcDb2dVertex
 10
134.1513576129233
 20
150.3165472011961
 30
0.0
  0
VERTEX
  5
477
330
45F
100
AcDbEntity
  8
Sichtbare Kanten(TC_020513_DIN)
100
AcDbVertex
100
AcDb2dVertex
 10
134.1541328051841
 20
150.3282464008726
 30
0.0
  0
VERTEX
  5
478
330
45F
100
AcDbEntity
  8
Sichtbare Kanten(TC_020513_DIN)
100
AcDbVertex
100
AcDb2dVertex
 10
134.1564621547019
 20
150.3389609318174
 30
0.0
  0
VERTEX
  5
479
330
45F
100
AcDbEntity
  8
Sichtbare Kanten(TC_020513_DIN)
100
AcDbVertex
100
AcDb2dVertex
 10
134.1583957293784
 20
150.3485191326536
 30
0.0
  0
SEQEND
  5
462
330
45F
100
AcDbEntity
  8
Sichtbare Kanten(TC_020513_DIN)
  0
LINE
  5
47A
330
37
100
AcDbEntity
  8
Sichtbare Kanten(TC_020513_DIN)
100
AcDbLine
 10
132.7794028857505
 20
150.1275242392246
 30
0.0
 11
135.148463414094
 21
150.1275242392246
 31
0.0
  0
LINE
  5
47B
330
37
100
AcDbEntity
  8
Sichtbare Kanten(TC_020513_DIN)
100
AcDbLine
 10
135.5794028857504
 20
140.1275242392246
 30
0.0
 11
132.7794028857505
 21
140.1275242392246
 31
0.0
  0
LINE
  5
47C
330
37
100
AcDbEntity
  8
Sichtbare Kanten(TC_020513_DIN)
100
AcDbLine
 10
135.5794028857505
 20
150.562780488421
 30
0.0
 11
135.5794028857505
 21
140.1275242392246
 31
0.0
  0
ARC
  5
47D
330
37
100
AcDbEntity
  8
Sichtbare Kanten(TC_020513_DIN)
100
AcDbCircle
 10
135.6794028857505
 20
122.6288839892221
 30
0.0
 40
0.0999999999999979
100
AcDbArc
 50
180.0
 51
270.0
  0
ARC
  5
47E
330
37
100
AcDbEntity
  8
Sichtbare Kanten(TC_020513_DIN)
100
AcDbCircle
 10
135.6794028857505
 20
122.6288839892221
 30
0.0
 40
1.500000000000043
100
AcDbArc
 50
180.0
 51
206.9141492018601
  0
LINE
  5
47F
330
37
100
AcDbEntity
  8
Sichtbare Kanten(TC_020513_DIN)
100
AcDbLine
 10
51.07940288575052
 20
99.34653890422953
 30
0.0
 11
51.07940288575052
 21
86.76653890422954
 31
0.0
  0
LINE
  5
480
330
37
100
AcDbEntity
  8
Sichtbare Kanten(TC_020513_DIN)
100
AcDbLine
 10
51.07940288575052
 20
99.34653890422957
 30
0.0
 11
51.07940288575052
 21
111.6765389042295
 31
0.0
  0
LINE
  5
481
330
37
100
AcDbEntity
  8
Sichtbare Kanten(TC_020513_DIN)
100
AcDbLine
 10
62.82940288575051
 20
111.6765389042295
 30
0.0
 11
51.07940288575052
 21
111.6765389042295
 31
0.0
  0
LINE
  5
482
330
37
100
AcDbEntity
  8
Sichtbare Kanten(TC_020513_DIN)
100
AcDbLine
 10
144.5794028857505
 20
82.76653890422954
 30
0.0
 11
135.5794028857505
 21
82.76653890422954
 31
0.0
  0
LINE
  5
483
330
37
100
AcDbEntity
  8
Sichtbare Kanten(TC_020513_DIN)
100
AcDbLine
 10
135.5794028857505
 20
82.76653890422954
 30
0.0
 11
125.5794028857505
 21
82.76653890422954
 31
0.0
  0
LINE
  5
484
330
37
100
AcDbEntity
  8
Sichtbare Kanten(TC_020513_DIN)
100
AcDbLine
 10
125.5794028857505
 20
82.76653890422954
 30
0.0
 11
70.07940288575053
 21
82.76653890422954
 31
0.0
  0
LINE
  5
485
330
37
100
AcDbEntity
  8
Sichtbare Kanten(TC_020513_DIN)
100
AcDbLine
 10
70.07940288575053
 20
82.76653890422954
 30
0.0
 11
60.07940288575053
 21
82.76653890422954
 31
0.0
  0
LINE
  5
486
330
37
100
AcDbEntity
  8
Sichtbare Kanten(TC_020513_DIN)
100
AcDbLine
 10
60.07940288575053
 20
82.76653890422954
 30
0.0
 11
51.07940288575052
 21
82.76653890422954
 31
0.0
  0
LINE
  5
487
330
37
100
AcDbEntity
  8
Sichtbare Kanten(TC_020513_DIN)
100
AcDbLine
 10
60.07940288575053
 20
86.76653890422954
 30
0.0
 11
51.07940288575052
 21
86.76653890422954
 31
0.0
  0
LINE
  5
488
330
37
100
AcDbEntity
  8
Sichtbare Kanten(TC_020513_DIN)
100
AcDbLine
 10
70.07940288575053
 20
86.76653890422954
 30
0.0
 11
60.07940288575053
 21
86.76653890422954
 31
0.0
  0
LINE
  5
489
330
37
100
AcDbEntity
  8
Sichtbare Kanten(TC_020513_DIN)
100
AcDbLine
 10
144.5794028857505
 20
82.76653890422954
 30
0.0
 11
144.5794028857505
 21
86.76653890422954
 31
0.0
  0
LINE
  5
48A
330
37
100
AcDbEntity
  8
Sichtbare Kanten(TC_020513_DIN)
100
AcDbLine
 10
135.5794028857505
 20
86.76653890422954
 30
0.0
 11
125.5794028857505
 21
86.76653890422954
 31
0.0
  0
LINE
  5
48B
330
37
100
AcDbEntity
  8
Sichtbare Kanten(TC_020513_DIN)
100
AcDbLine
 10
144.5794028857505
 20
86.76653890422954
 30
0.0
 11
135.5794028857505
 21
86.76653890422954
 31
0.0
  0
LINE
  5
48C
330
37
100
AcDbEntity
  8
Sichtbare Kanten(TC_020513_DIN)
100
AcDbLine
 10
135.5794028857505
 20
82.76653890422954
 30
0.0
 11
135.5794028857505
 21
86.76653890422954
 31
0.0
  0
LINE
  5
48D
330
37
100
AcDbEntity
  8
Sichtbare Kanten(TC_020513_DIN)
100
AcDbLine
 10
125.5794028857505
 20
82.76653890422954
 30
0.0
 11
125.5794028857505
 21
86.76653890422954
 31
0.0
  0
LINE
  5
48E
330
37
100
AcDbEntity
  8
Sichtbare Kanten(TC_020513_DIN)
100
AcDbLine
 10
70.07940288575053
 20
82.76653890422954
 30
0.0
 11
70.07940288575053
 21
86.76653890422954
 31
0.0
  0
LINE
  5
48F
330
37
100
AcDbEntity
  8
Sichtbare Kanten(TC_020513_DIN)
100
AcDbLine
 10
60.07940288575053
 20
82.76653890422954
 30
0.0
 11
60.07940288575053
 21
86.76653890422954
 31
0.0
  0
LINE
  5
490
330
37
100
AcDbEntity
  8
Sichtbare Kanten(TC_020513_DIN)
100
AcDbLine
 10
51.07940288575052
 20
82.76653890422954
 30
0.0
 11
51.07940288575052
 21
86.76653890422954
 31
0.0
  0
LINE
  5
491
330
37
100
AcDbEntity
  8
Sichtbare Kanten(TC_020513_DIN)
100
AcDbLine
 10
144.5794028857505
 20
99.34653890422957
 30
0.0
 11
144.5794028857505
 21
111.6765389042295
 31
0.0
  0
LINE
  5
492
330
37
100
AcDbEntity
  8
Sichtbare Kanten(TC_020513_DIN)
100
AcDbLine
 10
144.5794028857505
 20
99.34653890422953
 30
0.0
 11
144.5794028857505
 21
86.76653890422954
 31
0.0
  0
LINE
  5
493
330
37
100
AcDbEntity
  8
Sichtbare Kanten(TC_020513_DIN)
100
AcDbLine
 10
144.5794028857505
 20
111.6765389042295
 30
0.0
 11
132.8294028857505
 21
111.6765389042295
 31
0.0
  0
LINE
  5
494
330
37
100
AcDbEntity
  8
Sichtbare Kanten(TC_020513_DIN)
100
AcDbLine
 10
132.8294028857505
 20
86.76653890422954
 30
0.0
 11
132.8294028857505
 21
120.5499016016388
 31
0.0
  0
LINE
  5
495
330
37
100
AcDbEntity
  8
Sichtbare Kanten(TC_020513_DIN)
100
AcDbLine
 10
132.8294028857505
 20
121.9499016016388
 30
0.0
 11
132.8294028857505
 21
135.7665389042295
 31
0.0
  0
LINE
  5
496
330
37
100
AcDbEntity
  8
Sichtbare Kanten(TC_020513_DIN)
100
AcDbLine
 10
62.82940288575051
 20
86.76653890422954
 30
0.0
 11
62.82940288575051
 21
120.5499016016388
 31
0.0
  0
LINE
  5
497
330
37
100
AcDbEntity
  8
Sichtbare Kanten(TC_020513_DIN)
100
AcDbLine
 10
62.82940288575051
 20
121.9499016016388
 30
0.0
 11
62.82940288575051
 21
135.7665389042295
 31
0.0
  0
LINE
  5
498
330
37
100
AcDbEntity
  8
Sichtbare Kanten(TC_020513_DIN)
100
AcDbLine
 10
62.82940288575051
 20
135.7665389042295
 30
0.0
 11
68.82940288575051
 21
135.7665389042295
 31
0.0
  0
LINE
  5
499
330
37
100
AcDbEntity
  8
Sichtbare Kanten(TC_020513_DIN)
100
AcDbLine
 10
126.8294028857505
 20
135.7665389042295
 30
0.0
 11
132.8294028857505
 21
135.7665389042295
 31
0.0
  0
LINE
  5
49A
330
37
100
AcDbEntity
  8
Sichtbare Kanten(TC_020513_DIN)
100
AcDbLine
 10
126.8294028857505
 20
135.7665389042295
 30
0.0
 11
121.9889793727538
 21
135.7665389042295
 31
0.0
  0
LINE
  5
49B
330
37
100
AcDbEntity
  8
Sichtbare Kanten(TC_020513_DIN)
100
AcDbLine
 10
73.66982639874719
 20
135.7665389042295
 30
0.0
 11
68.82940288575051
 21
135.7665389042295
 31
0.0
  0
LINE
  5
49C
330
37
100
AcDbEntity
  8
Sichtbare Kanten(TC_020513_DIN)
100
AcDbLine
 10
63.02940288575051
 20
139.7665389042295
 30
0.0
 11
63.02940288575051
 21
135.7665389042295
 31
0.0
  0
LINE
  5
49D
330
37
100
AcDbEntity
  8
Sichtbare Kanten(TC_020513_DIN)
100
AcDbLine
 10
68.82940288575051
 20
139.7665389042295
 30
0.0
 11
63.02940288575051
 21
139.7665389042295
 31
0.0
  0
LINE
  5
49E
330
37
100
AcDbEntity
  8
Sichtbare Kanten(TC_020513_DIN)
100
AcDbLine
 10
68.82940288575051
 20
139.7665389042295
 30
0.0
 11
72.63459766432744
 21
139.7665389042295
 31
0.0
  0
LINE
  5
49F
330
37
100
AcDbEntity
  8
Sichtbare Kanten(TC_020513_DIN)
100
AcDbLine
 10
123.0242081071736
 20
139.7665389042295
 30
0.0
 11
126.8294028857505
 21
139.7665389042295
 31
0.0
  0
LINE
  5
4A0
330
37
100
AcDbEntity
  8
Sichtbare Kanten(TC_020513_DIN)
100
AcDbLine
 10
132.6294028857505
 20
139.7665389042295
 30
0.0
 11
132.6294028857505
 21
135.7665389042295
 31
0.0
  0
LINE
  5
4A1
330
37
100
AcDbEntity
  8
Sichtbare Kanten(TC_020513_DIN)
100
AcDbLine
 10
132.6294028857505
 20
139.7665389042295
 30
0.0
 11
126.8294028857505
 21
139.7665389042295
 31
0.0
  0
LINE
  5
4A2
330
37
100
AcDbEntity
  8
Sichtbare Kanten(TC_020513_DIN)
100
AcDbLine
 10
62.73940288575051
 20
130.2665389042295
 30
0.0
 11
62.73940288575051
 21
135.2665389042295
 31
0.0
  0
LINE
  5
4A3
330
37
100
AcDbEntity
  8
Sichtbare Kanten(TC_020513_DIN)
100
AcDbLine
 10
57.4794028857505
 20
128.7665389042295
 30
0.0
 11
57.4794028857505
 21
136.7665389042295
 31
0.0
  0
LINE
  5
4A4
330
37
100
AcDbEntity
  8
Sichtbare Kanten(TC_020513_DIN)
100
AcDbLine
 10
56.07940288575051
 20
128.7665389042295
 30
0.0
 11
56.07940288575051
 21
136.7665389042295
 31
0.0
  0
LINE
  5
4A5
330
37
100
AcDbEntity
  8
Sichtbare Kanten(TC_020513_DIN)
100
AcDbLine
 10
62.73940288575051
 20
134.2665389042295
 30
0.0
 11
62.82940288575049
 21
134.2665389042295
 31
0.0
  0
LINE
  5
4A6
330
37
100
AcDbEntity
  8
Sichtbare Kanten(TC_020513_DIN)
100
AcDbLine
 10
62.73940288575051
 20
131.2665389042295
 30
0.0
 11
62.82940288575049
 21
131.2665389042295
 31
0.0
  0
LINE
  5
4A7
330
37
100
AcDbEntity
  8
Sichtbare Kanten(TC_020513_DIN)
100
AcDbLine
 10
57.47940288575051
 20
135.2665389042295
 30
0.0
 11
58.0794028857505
 21
135.2665389042295
 31
0.0
  0
LINE
  5
4A8
330
37
100
AcDbEntity
  8
Sichtbare Kanten(TC_020513_DIN)
100
AcDbLine
 10
57.47940288575051
 20
130.2665389042295
 30
0.0
 11
58.0794028857505
 21
130.2665389042295
 31
0.0
  0
LINE
  5
4A9
330
37
100
AcDbEntity
  8
Sichtbare Kanten(TC_020513_DIN)
100
AcDbLine
 10
59.4794028857505
 20
135.2665389042295
 30
0.0
 11
60.07940288575053
 21
135.2665389042295
 31
0.0
  0
LINE
  5
4AA
330
37
100
AcDbEntity
  8
Sichtbare Kanten(TC_020513_DIN)
100
AcDbLine
 10
61.47940288575053
 20
135.2665389042295
 30
0.0
 11
62.73940288575051
 21
135.2665389042295
 31
0.0
  0
LINE
  5
4AB
330
37
100
AcDbEntity
  8
Sichtbare Kanten(TC_020513_DIN)
100
AcDbLine
 10
59.4794028857505
 20
130.2665389042295
 30
0.0
 11
60.07940288575053
 21
130.2665389042295
 31
0.0
  0
LINE
  5
4AC
330
37
100
AcDbEntity
  8
Sichtbare Kanten(TC_020513_DIN)
100
AcDbLine
 10
61.47940288575052
 20
130.2665389042295
 30
0.0
 11
62.73940288575051
 21
130.2665389042295
 31
0.0
  0
ARC
  5
4AD
330
37
100
AcDbEntity
  8
Sichtbare Kanten(TC_020513_DIN)
100
AcDbCircle
 10
56.77940288575051
 20
136.7665389042295
 30
0.0
 40
0.699999999999998
100
AcDbArc
 50
0.0
 51
180.0
  0
ARC
  5
4AE
330
37
100
AcDbEntity
  8
Sichtbare Kanten(TC_020513_DIN)
100
AcDbCircle
 10
56.77940288575051
 20
128.7665389042295
 30
0.0
 40
0.699999999999998
100
AcDbArc
 50
180.0
 51
0.0
  0
LINE
  5
4AF
330
37
100
AcDbEntity
  8
Sichtbare Kanten(TC_020513_DIN)
100
AcDbLine
 10
132.9194028857505
 20
130.2665389042295
 30
0.0
 11
132.9194028857505
 21
135.2665389042295
 31
0.0
  0
LINE
  5
4B0
330
37
100
AcDbEntity
  8
Sichtbare Kanten(TC_020513_DIN)
100
AcDbLine
 10
138.1794028857505
 20
128.7665389042295
 30
0.0
 11
138.1794028857505
 21
136.7665389042295
 31
0.0
  0
LINE
  5
4B1
330
37
100
AcDbEntity
  8
Sichtbare Kanten(TC_020513_DIN)
100
AcDbLine
 10
139.5794028857505
 20
128.7665389042295
 30
0.0
 11
139.5794028857505
 21
136.7665389042295
 31
0.0
  0
LINE
  5
4B2
330
37
100
AcDbEntity
  8
Sichtbare Kanten(TC_020513_DIN)
100
AcDbLine
 10
132.8294028857505
 20
134.2665389042295
 30
0.0
 11
132.9194028857505
 21
134.2665389042295
 31
0.0
  0
LINE
  5
4B3
330
37
100
AcDbEntity
  8
Sichtbare Kanten(TC_020513_DIN)
100
AcDbLine
 10
132.8294028857505
 20
131.2665389042295
 30
0.0
 11
132.9194028857505
 21
131.2665389042295
 31
0.0
  0
LINE
  5
4B4
330
37
100
AcDbEntity
  8
Sichtbare Kanten(TC_020513_DIN)
100
AcDbLine
 10
137.5794028857505
 20
135.2665389042295
 30
0.0
 11
138.1794028857505
 21
135.2665389042295
 31
0.0
  0
LINE
  5
4B5
330
37
100
AcDbEntity
  8
Sichtbare Kanten(TC_020513_DIN)
100
AcDbLine
 10
137.5794028857505
 20
130.2665389042295
 30
0.0
 11
138.1794028857505
 21
130.2665389042295
 31
0.0
  0
LINE
  5
4B6
330
37
100
AcDbEntity
  8
Sichtbare Kanten(TC_020513_DIN)
100
AcDbLine
 10
132.9194028857505
 20
135.2665389042295
 30
0.0
 11
134.1794028857505
 21
135.2665389042295
 31
0.0
  0
LINE
  5
4B7
330
37
100
AcDbEntity
  8
Sichtbare Kanten(TC_020513_DIN)
100
AcDbLine
 10
135.5794028857505
 20
135.2665389042295
 30
0.0
 11
136.1794028857505
 21
135.2665389042295
 31
0.0
  0
LINE
  5
4B8
330
37
100
AcDbEntity
  8
Sichtbare Kanten(TC_020513_DIN)
100
AcDbLine
 10
132.9194028857505
 20
130.2665389042295
 30
0.0
 11
134.1794028857505
 21
130.2665389042295
 31
0.0
  0
LINE
  5
4B9
330
37
100
AcDbEntity
  8
Sichtbare Kanten(TC_020513_DIN)
100
AcDbLine
 10
135.5794028857505
 20
130.2665389042295
 30
0.0
 11
136.1794028857505
 21
130.2665389042295
 31
0.0
  0
ARC
  5
4BA
330
37
100
AcDbEntity
  8
Sichtbare Kanten(TC_020513_DIN)
100
AcDbCircle
 10
138.8794028857505
 20
128.7665389042295
 30
0.0
 40
0.699999999999998
100
AcDbArc
 50
180.0
 51
0.0
  0
ARC
  5
4BB
330
37
100
AcDbEntity
  8
Sichtbare Kanten(TC_020513_DIN)
100
AcDbCircle
 10
138.8794028857505
 20
136.7665389042295
 30
0.0
 40
0.699999999999998
100
AcDbArc
 50
0.0
 51
180.0
  0
LINE
  5
4BC
330
37
100
AcDbEntity
  8
Sichtbare Kanten(TC_020513_DIN)
100
AcDbLine
 10
107.6127655831597
 20
120.5297674674244
 30
0.0
 11
107.6127655831597
 21
120.4499016016388
 31
0.0
  0
LINE
  5
4BD
330
37
100
AcDbEntity
  8
Sichtbare Kanten(TC_020513_DIN)
100
AcDbLine
 10
124.8627655831597
 20
120.4499016016387
 30
0.0
 11
124.8627655831597
 21
120.5499016016388
 31
0.0
  0
POLYLINE
  5
4BE
330
37
100
AcDbEntity
  8
Sichtbare Kanten(TC_020513_DIN)
100
AcDb2dPolyline
 66
     1
 10
0.0
 20
0.0
 30
0.0
 70
   128
  0
VERTEX
  5
4BF
330
4BE
100
AcDbEntity
  8
Sichtbare Kanten(TC_020513_DIN)
100
AcDbVertex
100
AcDb2dVertex
 10
107.5397332528388
 20
120.5499017696775
 30
0.0
  0
VERTEX
  5
4C0
330
4BE
100
AcDbEntity
  8
Sichtbare Kanten(TC_020513_DIN)
100
AcDbVertex
100
AcDb2dVertex
 10
107.5423415520942
 20
120.5498970013059
 30
0.0
  0
VERTEX
  5
4C2
330
4BE
100
AcDbEntity
  8
Sichtbare Kanten(TC_020513_DIN)
100
AcDbVertex
100
AcDb2dVertex
 10
107.5452252248084
 20
120.5498791199125
 30
0.0
  0
VERTEX
  5
4C3
330
4BE
100
AcDbEntity
  8
Sichtbare Kanten(TC_020513_DIN)
100
AcDbVertex
100
AcDb2dVertex
 10
107.5483532765662
 20
120.549839780847
 30
0.0
  0
VERTEX
  5
4C4
330
4BE
100
AcDbEntity
  8
Sichtbare Kanten(TC_020513_DIN)
100
AcDbVertex
100
AcDb2dVertex
 10
107.5516917327201
 20
120.5497742157377
 30
0.0
  0
VERTEX
  5
4C5
330
4BE
100
AcDbEntity
  8
Sichtbare Kanten(TC_020513_DIN)
100
AcDbVertex
100
AcDb2dVertex
 10
107.5552090028083
 20
120.5496728878416
 30
0.0
  0
VERTEX
  5
4C6
330
4BE
100
AcDbEntity
  8
Sichtbare Kanten(TC_020513_DIN)
100
AcDbVertex
100
AcDb2dVertex
 10
107.5588729003226
 20
120.5495298366941
 30
0.0
  0
VERTEX
  5
4C7
330
4BE
100
AcDbEntity
  8
Sichtbare Kanten(TC_020513_DIN)
100
AcDbVertex
100
AcDb2dVertex
 10
107.5626494506156
 20
120.5493391018308
 30
0.0
  0
VERTEX
  5
4C8
330
4BE
100
AcDbEntity
  8
Sichtbare Kanten(TC_020513_DIN)
100
AcDbVertex
100
AcDb2dVertex
 10
107.5665076592719
 20
120.5490923386015
 30
0.0
  0
VERTEX
  5
4C9
330
4BE
100
AcDbEntity
  8
Sichtbare Kanten(TC_020513_DIN)
100
AcDbVertex
100
AcDb2dVertex
 10
107.5704147437369
 20
120.5487823944486
 30
0.0
  0
VERTEX
  5
4CA
330
4BE
100
AcDbEntity
  8
Sichtbare Kanten(TC_020513_DIN)
100
AcDbVertex
100
AcDb2dVertex
 10
107.5743373254096
 20
120.5484033089079
 30
0.0
  0
VERTEX
  5
4CB
330
4BE
100
AcDbEntity
  8
Sichtbare Kanten(TC_020513_DIN)
100
AcDbVertex
100
AcDb2dVertex
 10
107.5782438138282
 20
120.5479479294218
 30
0.0
  0
VERTEX
  5
4CC
330
4BE
100
AcDbEntity
  8
Sichtbare Kanten(TC_020513_DIN)
100
AcDbVertex
100
AcDb2dVertex
 10
107.582101426438
 20
120.547409103433
 30
0.0
  0
VERTEX
  5
4CD
330
4BE
100
AcDbEntity
  8
Sichtbare Kanten(TC_020513_DIN)
100
AcDbVertex
100
AcDb2dVertex
 10
107.585877976731
 20
120.5467784862913
 30
0.0
  0
VERTEX
  5
4CE
330
4BE
100
AcDbEntity
  8
Sichtbare Kanten(TC_020513_DIN)
100
AcDbVertex
100
AcDb2dVertex
 10
107.589540086106
 20
120.546051309625
 30
0.0
  0
VERTEX
  5
4CF
330
4BE
100
AcDbEntity
  8
Sichtbare Kanten(TC_020513_DIN)
100
AcDbVertex
100
AcDb2dVertex
 10
107.5930561641013
 20
120.545219228784
 30
0.0
  0
VERTEX
  5
4D0
330
4BE
100
AcDbEntity
  8
Sichtbare Kanten(TC_020513_DIN)
100
AcDbVertex
100
AcDb2dVertex
 10
107.5964083293235
 20
120.5442703228391
 30
0.0
  0
VERTEX
  5
4D1
330
4BE
100
AcDbEntity
  8
Sichtbare Kanten(TC_020513_DIN)
100
AcDbVertex
100
AcDb2dVertex
 10
107.5996317485129
 20
120.5431664448179
 30
0.0
  0
VERTEX
  5
4D2
330
4BE
100
AcDbEntity
  8
Sichtbare Kanten(TC_020513_DIN)
100
AcDbVertex
100
AcDb2dVertex
 10
107.6026662209784
 20
120.5418897133268
 30
0.0
  0
VERTEX
  5
4D3
330
4BE
100
AcDbEntity
  8
Sichtbare Kanten(TC_020513_DIN)
100
AcDbVertex
100
AcDb2dVertex
 10
107.6054390290534
 20
120.5404222469725
 30
0.0
  0
VERTEX
  5
4D4
330
4BE
100
AcDbEntity
  8
Sichtbare Kanten(TC_020513_DIN)
100
AcDbVertex
100
AcDb2dVertex
 10
107.6078768590247
 20
120.5387521248258
 30
0.0
  0
VERTEX
  5
4D5
330
4BE
100
AcDbEntity
  8
Sichtbare Kanten(TC_020513_DIN)
100
AcDbVertex
100
AcDb2dVertex
 10
107.6099081853187
 20
120.5368578892149
 30
0.0
  0
VERTEX
  5
4D6
330
4BE
100
AcDbEntity
  8
Sichtbare Kanten(TC_020513_DIN)
100
AcDbVertex
100
AcDb2dVertex
 10
107.6114585021293
 20
120.5347180824674
 30
0.0
  0
VERTEX
  5
4D7
330
4BE
100
AcDbEntity
  8
Sichtbare Kanten(TC_020513_DIN)
100
AcDbVertex
100
AcDb2dVertex
 10
107.6124336341178
 20
120.5323422413267
 30
0.0
  0
VERTEX
  5
4D8
330
4BE
100
AcDbEntity
  8
Sichtbare Kanten(TC_020513_DIN)
100
AcDbVertex
100
AcDb2dVertex
 10
107.6127656319892
 20
120.5297673206724
 30
0.0
  0
SEQEND
  5
4C1
330
4BE
100
AcDbEntity
  8
Sichtbare Kanten(TC_020513_DIN)
  0
POLYLINE
  5
4D9
330
37
100
AcDbEntity
  8
Sichtbare Kanten(TC_020513_DIN)
100
AcDb2dPolyline
 66
     1
 10
0.0
 20
0.0
 30
0.0
 70
   128
  0
VERTEX
  5
4DA
330
4D9
100
AcDbEntity
  8
Sichtbare Kanten(TC_020513_DIN)
100
AcDbVertex
100
AcDb2dVertex
 10
88.0460401395118
 20
120.5297673206724
 30
0.0
  0
VERTEX
  5
4DB
330
4D9
100
AcDbEntity
  8
Sichtbare Kanten(TC_020513_DIN)
100
AcDbVertex
100
AcDb2dVertex
 10
88.04618080647347
 20
120.5314779739774
 30
0.0
  0
VERTEX
  5
4DD
330
4D9
100
AcDbEntity
  8
Sichtbare Kanten(TC_020513_DIN)
100
AcDbVertex
100
AcDb2dVertex
 10
88.0467452624595
 20
120.5334711532987
 30
0.0
  0
VERTEX
  5
4DE
330
4D9
100
AcDbEntity
  8
Sichtbare Kanten(TC_020513_DIN)
100
AcDbVertex
100
AcDb2dVertex
 10
88.04794212372659
 20
120.535658643762
 30
0.0
  0
VERTEX
  5
4DF
330
4D9
100
AcDbEntity
  8
Sichtbare Kanten(TC_020513_DIN)
100
AcDbVertex
100
AcDb2dVertex
 10
88.0498083451545
 20
120.5377877216734
 30
0.0
  0
VERTEX
  5
4E0
330
4D9
100
AcDbEntity
  8
Sichtbare Kanten(TC_020513_DIN)
100
AcDbVertex
100
AcDb2dVertex
 10
88.05215796025155
 20
120.5396521549619
 30
0.0
  0
VERTEX
  5
4E1
330
4D9
100
AcDbEntity
  8
Sichtbare Kanten(TC_020513_DIN)
100
AcDbVertex
100
AcDb2dVertex
 10
88.05488964112161
 20
120.541271017114
 30
0.0
  0
VERTEX
  5
4E2
330
4D9
100
AcDbEntity
  8
Sichtbare Kanten(TC_020513_DIN)
100
AcDbVertex
100
AcDb2dVertex
 10
88.05793424637673
 20
120.5426776867307
 30
0.0
  0
VERTEX
  5
4E3
330
4D9
100
AcDbEntity
  8
Sichtbare Kanten(TC_020513_DIN)
100
AcDbVertex
100
AcDb2dVertex
 10
88.06125720532296
 20
120.5439055424131
 30
0.0
  0
VERTEX
  5
4E4
330
4D9
100
AcDbEntity
  8
Sichtbare Kanten(TC_020513_DIN)
100
AcDbVertex
100
AcDb2dVertex
 10
88.06479593308328
 20
120.5449665050901
 30
0.0
  0
VERTEX
  5
4E5
330
4D9
100
AcDbEntity
  8
Sichtbare Kanten(TC_020513_DIN)
100
AcDbVertex
100
AcDb2dVertex
 10
88.06848784478066
 20
120.5458772640623
 30
0.0
  0
VERTEX
  5
4E6
330
4D9
100
AcDbEntity
  8
Sichtbare Kanten(TC_020513_DIN)
100
AcDbVertex
100
AcDb2dVertex
 10
88.07227154763101
 20
120.5466509323515
 30
0.0
  0
VERTEX
  5
4E7
330
4D9
100
AcDbEntity
  8
Sichtbare Kanten(TC_020513_DIN)
100
AcDbVertex
100
AcDb2dVertex
 10
88.0761071065223
 20
120.5473053913511
 30
0.0
  0
VERTEX
  5
4E8
330
4D9
100
AcDbEntity
  8
Sichtbare Kanten(TC_020513_DIN)
100
AcDbVertex
100
AcDb2dVertex
 10
88.08002670796273
 20
120.5478644829191
 30
0.0
  0
VERTEX
  5
4E9
330
4D9
100
AcDbEntity
  8
Sichtbare Kanten(TC_020513_DIN)
100
AcDbVertex
100
AcDb2dVertex
 10
88.08400054962991
 20
120.5483377437986
 30
0.0
  0
VERTEX
  5
4EA
330
4D9
100
AcDbEntity
  8
Sichtbare Kanten(TC_020513_DIN)
100
AcDbVertex
100
AcDb2dVertex
 10
88.08799525292275
 20
120.548732326547
 30
0.0
  0
VERTEX
  5
4EB
330
4D9
100
AcDbEntity
  8
Sichtbare Kanten(TC_020513_DIN)
100
AcDbVertex
100
AcDb2dVertex
 10
88.09197445900796
 20
120.5490541916288
 30
0.0
  0
VERTEX
  5
4EC
330
4D9
100
AcDbEntity
  8
Sichtbare Kanten(TC_020513_DIN)
100
AcDbVertex
100
AcDb2dVertex
 10
88.095904193238
 20
120.5493116836942
 30
0.0
  0
VERTEX
  5
4ED
330
4D9
100
AcDbEntity
  8
Sichtbare Kanten(TC_020513_DIN)
100
AcDbVertex
100
AcDb2dVertex
 10
88.09974869282601
 20
120.5495107632078
 30
0.0
  0
VERTEX
  5
4EE
330
4D9
100
AcDbEntity
  8
Sichtbare Kanten(TC_020513_DIN)
100
AcDbVertex
100
AcDb2dVertex
 10
88.10347279103158
 20
120.5496597748197
 30
0.0
  0
VERTEX
  5
4EF
330
4D9
100
AcDbEntity
  8
Sichtbare Kanten(TC_020513_DIN)
100
AcDbVertex
100
AcDb2dVertex
 10
88.10704251320718
 20
120.5497658710874
 30
0.0
  0
VERTEX
  5
4F0
330
4D9
100
AcDbEntity
  8
Sichtbare Kanten(TC_020513_DIN)
100
AcDbVertex
100
AcDb2dVertex
 10
88.11042269261239
 20
120.5498362045683
 30
0.0
  0
VERTEX
  5
4F1
330
4D9
100
AcDbEntity
  8
Sichtbare Kanten(TC_020513_DIN)
100
AcDbVertex
100
AcDb2dVertex
 10
88.11357756646035
 20
120.5498779278196
 30
0.0
  0
VERTEX
  5
4F2
330
4D9
100
AcDbEntity
  8
Sichtbare Kanten(TC_020513_DIN)
100
AcDbVertex
100
AcDb2dVertex
 10
88.11647256405709
 20
120.5498970013059
 30
0.0
  0
VERTEX
  5
4F3
330
4D9
100
AcDbEntity
  8
Sichtbare Kanten(TC_020513_DIN)
100
AcDbVertex
100
AcDb2dVertex
 10
88.1190725186622
 20
120.5499017696775
 30
0.0
  0
SEQEND
  5
4DC
330
4D9
100
AcDbEntity
  8
Sichtbare Kanten(TC_020513_DIN)
  0
LINE
  5
4F4
330
37
100
AcDbEntity
  8
Sichtbare Kanten(TC_020513_DIN)
100
AcDbLine
 10
70.79604018834126
 20
120.5499016016388
 30
0.0
 11
70.79604018834126
 21
120.4499016016388
 31
0.0
  0
LINE
  5
4F5
330
37
100
AcDbEntity
  8
Sichtbare Kanten(TC_020513_DIN)
100
AcDbLine
 10
88.04604018834124
 20
120.4499016016388
 30
0.0
 11
88.04604018834124
 21
120.5297674674244
 31
0.0
  0
LINE
  5
4F6
330
37
100
AcDbEntity
  8
Sichtbare Kanten(TC_020513_DIN)
100
AcDbLine
 10
124.8627655831598
 20
119.6122466866313
 30
0.0
 11
108.1127655831598
 21
119.6122466866313
 31
0.0
  0
ARC
  5
4F7
330
37
100
AcDbEntity
  8
Sichtbare Kanten(TC_020513_DIN)
100
AcDbCircle
 10
108.1127655831598
 20
120.1122466866313
 30
0.0
 40
0.5000000000000027
100
AcDbArc
 50
180.0
 51
270.0
  0
LINE
  5
4F8
330
37
100
AcDbEntity
  8
Sichtbare Kanten(TC_020513_DIN)
100
AcDbLine
 10
107.6127655831598
 20
120.1122466866313
 30
0.0
 11
107.6127655831598
 21
120.4499016016387
 31
0.0
  0
LINE
  5
4F9
330
37
100
AcDbEntity
  8
Sichtbare Kanten(TC_020513_DIN)
100
AcDbLine
 10
124.8627655831598
 20
120.4499016016387
 30
0.0
 11
124.8627655831598
 21
119.6122466866313
 31
0.0
  0
LINE
  5
4FA
330
37
100
AcDbEntity
  8
Sichtbare Kanten(TC_020513_DIN)
100
AcDbLine
 10
136.1794028857505
 20
123.3499016016388
 30
0.0
 11
136.1794028857505
 21
125.7665389042295
 31
0.0
  0
LINE
  5
4FB
330
37
100
AcDbEntity
  8
Sichtbare Kanten(TC_020513_DIN)
100
AcDbLine
 10
136.1794028857505
 20
133.7665389042295
 30
0.0
 11
136.1794028857505
 21
125.7665389042295
 31
0.0
  0
LINE
  5
4FC
330
37
100
AcDbEntity
  8
Sichtbare Kanten(TC_020513_DIN)
100
AcDbLine
 10
136.1794028857505
 20
133.7665389042295
 30
0.0
 11
136.1794028857505
 21
133.9449511541371
 31
0.0
  0
LINE
  5
4FD
330
37
100
AcDbEntity
  8
Sichtbare Kanten(TC_020513_DIN)
100
AcDbLine
 10
136.1794028857505
 20
139.0585146178085
 30
0.0
 11
136.1794028857505
 21
133.9449511541371
 31
0.0
  0
LINE
  5
4FE
330
37
100
AcDbEntity
  8
Sichtbare Kanten(TC_020513_DIN)
100
AcDbLine
 10
136.1794028857505
 20
139.7665389042295
 30
0.0
 11
136.1794028857505
 21
139.0585146178085
 31
0.0
  0
LINE
  5
4FF
330
37
100
AcDbEntity
  8
Sichtbare Kanten(TC_020513_DIN)
100
AcDbLine
 10
136.1794028857505
 20
120.9250304710423
 30
0.0
 11
136.1794028857505
 21
118.0325984796235
 31
0.0
  0
LINE
  5
500
330
37
100
AcDbEntity
  8
Sichtbare Kanten(TC_020513_DIN)
100
AcDbLine
 10
137.5794028857505
 20
123.3499016016388
 30
0.0
 11
137.5794028857505
 21
118.0325984796235
 31
0.0
  0
LINE
  5
501
330
37
100
AcDbEntity
  8
Sichtbare Kanten(TC_020513_DIN)
100
AcDbLine
 10
137.5794028857505
 20
139.7665389042295
 30
0.0
 11
137.5794028857505
 21
139.0585146178085
 31
0.0
  0
LINE
  5
502
330
37
100
AcDbEntity
  8
Sichtbare Kanten(TC_020513_DIN)
100
AcDbLine
 10
137.5794028857505
 20
139.0585146178085
 30
0.0
 11
137.5794028857505
 21
133.9449511541371
 31
0.0
  0
LINE
  5
503
330
37
100
AcDbEntity
  8
Sichtbare Kanten(TC_020513_DIN)
100
AcDbLine
 10
137.5794028857505
 20
133.7665389042295
 30
0.0
 11
137.5794028857505
 21
133.9449511541371
 31
0.0
  0
LINE
  5
504
330
37
100
AcDbEntity
  8
Sichtbare Kanten(TC_020513_DIN)
100
AcDbLine
 10
137.5794028857505
 20
133.7665389042295
 30
0.0
 11
137.5794028857505
 21
125.7665389042295
 31
0.0
  0
LINE
  5
505
330
37
100
AcDbEntity
  8
Sichtbare Kanten(TC_020513_DIN)
100
AcDbLine
 10
137.5794028857505
 20
123.3499016016388
 30
0.0
 11
137.5794028857505
 21
125.7665389042295
 31
0.0
  0
LINE
  5
506
330
37
100
AcDbEntity
  8
Sichtbare Kanten(TC_020513_DIN)
100
AcDbLine
 10
137.5794028857505
 20
133.7665389042295
 30
0.0
 11
136.1794028857505
 21
133.7665389042295
 31
0.0
  0
LINE
  5
507
330
37
100
AcDbEntity
  8
Sichtbare Kanten(TC_020513_DIN)
100
AcDbLine
 10
130.8627655831598
 20
121.9499016016388
 30
0.0
 11
134.7794028857505
 21
121.9499016016388
 31
0.0
  0
LINE
  5
508
330
37
100
AcDbEntity
  8
Sichtbare Kanten(TC_020513_DIN)
100
AcDbLine
 10
130.8627655831598
 20
120.5499016016388
 30
0.0
 11
134.7794028857505
 21
120.5499016016388
 31
0.0
  0
LINE
  5
509
330
37
100
AcDbEntity
  8
Sichtbare Kanten(TC_020513_DIN)
100
AcDbLine
 10
130.0712207582278
 20
121.9499016016388
 30
0.0
 11
130.8627655831598
 21
121.9499016016388
 31
0.0
  0
LINE
  5
50A
330
37
100
AcDbEntity
  8
Sichtbare Kanten(TC_020513_DIN)
100
AcDbLine
 10
130.0712207582278
 20
120.5499016016388
 30
0.0
 11
130.8627655831598
 21
120.5499016016388
 31
0.0
  0
LINE
  5
50B
330
37
100
AcDbEntity
  8
Sichtbare Kanten(TC_020513_DIN)
100
AcDbLine
 10
130.0712207582278
 20
121.9499016016388
 30
0.0
 11
123.7388621587723
 21
121.9499016016388
 31
0.0
  0
LINE
  5
50C
330
37
100
AcDbEntity
  8
Sichtbare Kanten(TC_020513_DIN)
100
AcDbLine
 10
130.0712207582278
 20
120.5499016016388
 30
0.0
 11
123.7388621587723
 21
120.5499016016388
 31
0.0
  0
LINE
  5
50D
330
37
100
AcDbEntity
  8
Sichtbare Kanten(TC_020513_DIN)
100
AcDbLine
 10
136.1794028857505
 20
118.0325984796235
 30
0.0
 11
137.5794028857505
 21
118.0325984796235
 31
0.0
  0
LINE
  5
50E
330
37
100
AcDbEntity
  8
Sichtbare Kanten(TC_020513_DIN)
100
AcDbLine
 10
136.1794028857505
 20
139.7665389042295
 30
0.0
 11
137.5794028857505
 21
139.7665389042295
 31
0.0
  0
ARC
  5
50F
330
37
100
AcDbEntity
  8
Sichtbare Kanten(TC_020513_DIN)
100
AcDbCircle
 10
134.7794028857505
 20
123.3499016016388
 30
0.0
 40
2.800000000000002
100
AcDbArc
 50
270.0
 51
0.0
  0
ARC
  5
510
330
37
100
AcDbEntity
  8
Sichtbare Kanten(TC_020513_DIN)
100
AcDbCircle
 10
134.7794028857505
 20
123.3499016016388
 30
0.0
 40
1.400000000000001
100
AcDbArc
 50
270.0
 51
0.0
  0
LINE
  5
511
330
37
100
AcDbEntity
  8
Sichtbare Kanten(TC_020513_DIN)
100
AcDbLine
 10
123.7388621587723
 20
120.5499016016388
 30
0.0
 11
71.91994361272875
 21
120.5499016016388
 31
0.0
  0
LINE
  5
512
330
37
100
AcDbEntity
  8
Sichtbare Kanten(TC_020513_DIN)
100
AcDbLine
 10
65.5875850132732
 20
120.5499016016388
 30
0.0
 11
71.91994361272875
 21
120.5499016016388
 31
0.0
  0
LINE
  5
513
330
37
100
AcDbEntity
  8
Sichtbare Kanten(TC_020513_DIN)
100
AcDbLine
 10
65.5875850132732
 20
120.5499016016388
 30
0.0
 11
64.79604018834125
 21
120.5499016016388
 31
0.0
  0
LINE
  5
514
330
37
100
AcDbEntity
  8
Sichtbare Kanten(TC_020513_DIN)
100
AcDbLine
 10
64.79604018834125
 20
120.5499016016388
 30
0.0
 11
60.87940288575051
 21
120.5499016016388
 31
0.0
  0
LINE
  5
515
330
37
100
AcDbEntity
  8
Sichtbare Kanten(TC_020513_DIN)
100
AcDbLine
 10
123.7388621587723
 20
121.9499016016388
 30
0.0
 11
71.91994361272875
 21
121.9499016016388
 31
0.0
  0
LINE
  5
516
330
37
100
AcDbEntity
  8
Sichtbare Kanten(TC_020513_DIN)
100
AcDbLine
 10
70.79604018834125
 20
119.6122466866314
 30
0.0
 11
87.54604018834127
 21
119.6122466866314
 31
0.0
  0
ARC
  5
517
330
37
100
AcDbEntity
  8
Sichtbare Kanten(TC_020513_DIN)
100
AcDbCircle
 10
87.54604018834127
 20
120.1122466866314
 30
0.0
 40
0.5000000000000027
100
AcDbArc
 50
270.0
 51
0.0
  0
LINE
  5
518
330
37
100
AcDbEntity
  8
Sichtbare Kanten(TC_020513_DIN)
100
AcDbLine
 10
88.04604018834124
 20
120.1122466866314
 30
0.0
 11
88.04604018834124
 21
120.4499016016388
 31
0.0
  0
LINE
  5
519
330
37
100
AcDbEntity
  8
Sichtbare Kanten(TC_020513_DIN)
100
AcDbLine
 10
70.79604018834126
 20
120.4499016016388
 30
0.0
 11
70.79604018834125
 21
119.6122466866314
 31
0.0
  0
LINE
  5
51A
330
37
100
AcDbEntity
  8
Sichtbare Kanten(TC_020513_DIN)
100
AcDbLine
 10
64.79604018834125
 20
121.9499016016388
 30
0.0
 11
60.87940288575051
 21
121.9499016016388
 31
0.0
  0
LINE
  5
51B
330
37
100
AcDbEntity
  8
Sichtbare Kanten(TC_020513_DIN)
100
AcDbLine
 10
65.5875850132732
 20
121.9499016016388
 30
0.0
 11
64.79604018834125
 21
121.9499016016388
 31
0.0
  0
LINE
  5
51C
330
37
100
AcDbEntity
  8
Sichtbare Kanten(TC_020513_DIN)
100
AcDbLine
 10
65.5875850132732
 20
121.9499016016388
 30
0.0
 11
71.91994361272875
 21
121.9499016016388
 31
0.0
  0
LINE
  5
51D
330
37
100
AcDbEntity
  8
Sichtbare Kanten(TC_020513_DIN)
100
AcDbLine
 10
59.47940288575053
 20
120.9250304710423
 30
0.0
 11
59.47940288575053
 21
118.0325984796235
 31
0.0
  0
LINE
  5
51E
330
37
100
AcDbEntity
  8
Sichtbare Kanten(TC_020513_DIN)
100
AcDbLine
 10
59.47940288575053
 20
139.7665389042295
 30
0.0
 11
59.47940288575053
 21
139.0585146178085
 31
0.0
  0
LINE
  5
51F
330
37
100
AcDbEntity
  8
Sichtbare Kanten(TC_020513_DIN)
100
AcDbLine
 10
59.47940288575053
 20
139.0585146178085
 30
0.0
 11
59.47940288575053
 21
133.9449511541371
 31
0.0
  0
LINE
  5
520
330
37
100
AcDbEntity
  8
Sichtbare Kanten(TC_020513_DIN)
100
AcDbLine
 10
59.47940288575053
 20
133.7665389042295
 30
0.0
 11
59.47940288575053
 21
133.9449511541371
 31
0.0
  0
LINE
  5
521
330
37
100
AcDbEntity
  8
Sichtbare Kanten(TC_020513_DIN)
100
AcDbLine
 10
59.47940288575053
 20
133.7665389042295
 30
0.0
 11
59.47940288575053
 21
125.7665389042295
 31
0.0
  0
LINE
  5
522
330
37
100
AcDbEntity
  8
Sichtbare Kanten(TC_020513_DIN)
100
AcDbLine
 10
59.47940288575053
 20
123.3499016016388
 30
0.0
 11
59.4794028857505
 21
125.7665389042295
 31
0.0
  0
LINE
  5
523
330
37
100
AcDbEntity
  8
Sichtbare Kanten(TC_020513_DIN)
100
AcDbLine
 10
58.0794028857505
 20
123.3499016016388
 30
0.0
 11
58.07940288575053
 21
125.7665389042295
 31
0.0
  0
LINE
  5
524
330
37
100
AcDbEntity
  8
Sichtbare Kanten(TC_020513_DIN)
100
AcDbLine
 10
58.07940288575053
 20
133.7665389042295
 30
0.0
 11
58.07940288575053
 21
125.7665389042295
 31
0.0
  0
LINE
  5
525
330
37
100
AcDbEntity
  8
Sichtbare Kanten(TC_020513_DIN)
100
AcDbLine
 10
58.07940288575053
 20
133.7665389042295
 30
0.0
 11
58.07940288575053
 21
133.9449511541371
 31
0.0
  0
LINE
  5
526
330
37
100
AcDbEntity
  8
Sichtbare Kanten(TC_020513_DIN)
100
AcDbLine
 10
58.07940288575053
 20
139.0585146178085
 30
0.0
 11
58.07940288575053
 21
133.9449511541371
 31
0.0
  0
LINE
  5
527
330
37
100
AcDbEntity
  8
Sichtbare Kanten(TC_020513_DIN)
100
AcDbLine
 10
58.07940288575053
 20
139.7665389042295
 30
0.0
 11
58.07940288575053
 21
139.0585146178085
 31
0.0
  0
LINE
  5
528
330
37
100
AcDbEntity
  8
Sichtbare Kanten(TC_020513_DIN)
100
AcDbLine
 10
58.07940288575053
 20
123.3499016016388
 30
0.0
 11
58.07940288575053
 21
118.0325984796235
 31
0.0
  0
LINE
  5
529
330
37
100
AcDbEntity
  8
Sichtbare Kanten(TC_020513_DIN)
100
AcDbLine
 10
58.07940288575053
 20
133.7665389042295
 30
0.0
 11
59.4794028857505
 21
133.7665389042295
 31
0.0
  0
LINE
  5
52A
330
37
100
AcDbEntity
  8
Sichtbare Kanten(TC_020513_DIN)
100
AcDbLine
 10
58.07940288575053
 20
118.0325984796235
 30
0.0
 11
59.47940288575053
 21
118.0325984796235
 31
0.0
  0
LINE
  5
52B
330
37
100
AcDbEntity
  8
Sichtbare Kanten(TC_020513_DIN)
100
AcDbLine
 10
58.07940288575053
 20
139.7665389042295
 30
0.0
 11
59.47940288575053
 21
139.7665389042295
 31
0.0
  0
ARC
  5
52C
330
37
100
AcDbEntity
  8
Sichtbare Kanten(TC_020513_DIN)
100
AcDbCircle
 10
60.87940288575051
 20
123.3499016016388
 30
0.0
 40
2.800000000000006
100
AcDbArc
 50
180.0
 51
270.0
  0
ARC
  5
52D
330
37
100
AcDbEntity
  8
Sichtbare Kanten(TC_020513_DIN)
100
AcDbCircle
 10
60.87940288575051
 20
123.3499016016388
 30
0.0
 40
1.399999999999996
100
AcDbArc
 50
180.0
 51
270.0000000000003
  0
LINE
  5
52E
330
37
100
AcDbEntity
  8
Sichtbare Kanten(TC_020513_DIN)
100
AcDbLine
 10
244.1045853262854
 20
150.1275242392246
 30
0.0
 11
244.1045853262854
 21
140.1275242392246
 31
0.0
  0
POLYLINE
  5
52F
330
37
100
AcDbEntity
  8
Sichtbare Kanten(TC_020513_DIN)
100
AcDb2dPolyline
 66
     1
 10
0.0
 20
0.0
 30
0.0
 70
   128
  0
VERTEX
  5
530
330
52F
100
AcDbEntity
  8
Sichtbare Kanten(TC_020513_DIN)
100
AcDbVertex
100
AcDb2dVertex
 10
241.7878315800598
 20
150.3485191326536
 30
0.0
  0
VERTEX
  5
531
330
52F
100
AcDbEntity
  8
Sichtbare Kanten(TC_020513_DIN)
100
AcDbVertex
100
AcDb2dVertex
 10
241.7678854817321
 20
150.357447908441
 30
0.0
  0
VERTEX
  5
533
330
52F
100
AcDbEntity
  8
Sichtbare Kanten(TC_020513_DIN)
100
AcDbVertex
100
AcDb2dVertex
 10
241.7479131573608
 20
150.3663754921354
 30
0.0
  0
VERTEX
  5
534
330
52F
100
AcDbEntity
  8
Sichtbare Kanten(TC_020513_DIN)
100
AcDbVertex
100
AcDb2dVertex
 10
241.7279217595031
 20
150.3753030758299
 30
0.0
  0
VERTEX
  5
535
330
52F
100
AcDbEntity
  8
Sichtbare Kanten(TC_020513_DIN)
100
AcDbVertex
100
AcDb2dVertex
 10
241.7079065197876
 20
150.3842306595243
 30
0.0
  0
VERTEX
  5
536
330
52F
100
AcDbEntity
  8
Sichtbare Kanten(TC_020513_DIN)
100
AcDbVertex
100
AcDb2dVertex
 10
241.6878722065856
 20
150.3931570511259
 30
0.0
  0
VERTEX
  5
537
330
52F
100
AcDbEntity
  8
Sichtbare Kanten(TC_020513_DIN)
100
AcDbVertex
100
AcDb2dVertex
 10
241.6678188198974
 20
150.4020846348203
 30
0.0
  0
VERTEX
  5
538
330
52F
100
AcDbEntity
  8
Sichtbare Kanten(TC_020513_DIN)
100
AcDbVertex
100
AcDb2dVertex
 10
241.6477439755371
 20
150.4110110264219
 30
0.0
  0
VERTEX
  5
539
330
52F
100
AcDbEntity
  8
Sichtbare Kanten(TC_020513_DIN)
100
AcDbVertex
100
AcDb2dVertex
 10
241.6276524418762
 20
150.4199386101164
 30
0.0
  0
VERTEX
  5
53A
330
52F
100
AcDbEntity
  8
Sichtbare Kanten(TC_020513_DIN)
100
AcDbVertex
100
AcDb2dVertex
 10
241.6075442189148
 20
150.4288650017179
 30
0.0
  0
VERTEX
  5
53B
330
52F
100
AcDbEntity
  8
Sichtbare Kanten(TC_020513_DIN)
100
AcDbVertex
100
AcDb2dVertex
 10
241.5874193066528
 20
150.4377925854124
 30
0.0
  0
VERTEX
  5
53C
330
52F
100
AcDbEntity
  8
Sichtbare Kanten(TC_020513_DIN)
100
AcDbVertex
100
AcDb2dVertex
 10
241.5672777050903
 20
150.4467213611997
 30
0.0
  0
VERTEX
  5
53D
330
52F
100
AcDbEntity
  8
Sichtbare Kanten(TC_020513_DIN)
100
AcDbVertex
100
AcDb2dVertex
 10
241.5471194142273
 20
150.4556501369871
 30
0.0
  0
VERTEX
  5
53E
330
52F
100
AcDbEntity
  8
Sichtbare Kanten(TC_020513_DIN)
100
AcDbVertex
100
AcDb2dVertex
 10
241.526951586621
 20
150.4645777206816
 30
0.0
  0
VERTEX
  5
53F
330
52F
100
AcDbEntity
  8
Sichtbare Kanten(TC_020513_DIN)
100
AcDbVertex
100
AcDb2dVertex
 10
241.5067718380859
 20
150.4735064964689
 30
0.0
  0
VERTEX
  5
540
330
52F
100
AcDbEntity
  8
Sichtbare Kanten(TC_020513_DIN)
100
AcDbVertex
100
AcDb2dVertex
 10
241.4865825528076
 20
150.4824340801634
 30
0.0
  0
VERTEX
  5
541
330
52F
100
AcDbEntity
  8
Sichtbare Kanten(TC_020513_DIN)
100
AcDbVertex
100
AcDb2dVertex
 10
241.4663861149719
 20
150.4913616638578
 30
0.0
  0
VERTEX
  5
542
330
52F
100
AcDbEntity
  8
Sichtbare Kanten(TC_020513_DIN)
100
AcDbVertex
100
AcDb2dVertex
 10
241.446180140393
 20
150.5002880554594
 30
0.0
  0
VERTEX
  5
543
330
52F
100
AcDbEntity
  8
Sichtbare Kanten(TC_020513_DIN)
100
AcDbVertex
100
AcDb2dVertex
 10
241.4259670132568
 20
150.5092156391538
 30
0.0
  0
VERTEX
  5
544
330
52F
100
AcDbEntity
  8
Sichtbare Kanten(TC_020513_DIN)
100
AcDbVertex
100
AcDb2dVertex
 10
241.4057467335632
 20
150.5181420307554
 30
0.0
  0
VERTEX
  5
545
330
52F
100
AcDbEntity
  8
Sichtbare Kanten(TC_020513_DIN)
100
AcDbVertex
100
AcDb2dVertex
 10
241.3855240696838
 20
150.527068422357
 30
0.0
  0
VERTEX
  5
546
330
52F
100
AcDbEntity
  8
Sichtbare Kanten(TC_020513_DIN)
100
AcDbVertex
100
AcDb2dVertex
 10
241.3652942532471
 20
150.5359960060514
 30
0.0
  0
VERTEX
  5
547
330
52F
100
AcDbEntity
  8
Sichtbare Kanten(TC_020513_DIN)
100
AcDbVertex
100
AcDb2dVertex
 10
241.3450596684387
 20
150.5449235897459
 30
0.0
  0
VERTEX
  5
548
330
52F
100
AcDbEntity
  8
Sichtbare Kanten(TC_020513_DIN)
100
AcDbVertex
100
AcDb2dVertex
 10
241.3248250836304
 20
150.5538523655332
 30
0.0
  0
VERTEX
  5
549
330
52F
100
AcDbEntity
  8
Sichtbare Kanten(TC_020513_DIN)
100
AcDbVertex
100
AcDb2dVertex
 10
241.3045857304504
 20
150.5627799492277
 30
0.0
  0
SEQEND
  5
532
330
52F
100
AcDbEntity
  8
Sichtbare Kanten(TC_020513_DIN)
  0
POLYLINE
  5
54A
330
37
100
AcDbEntity
  8
Sichtbare Kanten(TC_020513_DIN)
100
AcDb2dPolyline
 66
     1
 10
0.0
 20
0.0
 30
0.0
 70
   128
  0
VERTEX
  5
54B
330
54A
100
AcDbEntity
  8
Sichtbare Kanten(TC_020513_DIN)
100
AcDbVertex
100
AcDb2dVertex
 10
242.7970836514405
 20
150.1275241833128
 30
0.0
  0
VERTEX
  5
54C
330
54A
100
AcDbEntity
  8
Sichtbare Kanten(TC_020513_DIN)
100
AcDbVertex
100
AcDb2dVertex
 10
242.7493260258607
 20
150.1280630093015
 30
0.0
  0
VERTEX
  5
54E
330
54A
100
AcDbEntity
  8
Sichtbare Kanten(TC_020513_DIN)
100
AcDbVertex
100
AcDb2dVertex
 10
242.7010367268494
 20
150.1296830635465
 30
0.0
  0
VERTEX
  5
54F
330
54A
100
AcDbEntity
  8
Sichtbare Kanten(TC_020513_DIN)
100
AcDbVertex
100
AcDb2dVertex
 10
242.6522467488221
 20
150.1323891144194
 30
0.0
  0
VERTEX
  5
550
330
54A
100
AcDbEntity
  8
Sichtbare Kanten(TC_020513_DIN)
100
AcDbVertex
100
AcDb2dVertex
 10
242.6029918545655
 20
150.1361859302915
 30
0.0
  0
VERTEX
  5
551
330
54A
100
AcDbEntity
  8
Sichtbare Kanten(TC_020513_DIN)
100
AcDbVertex
100
AcDb2dVertex
 10
242.5533078068665
 20
150.1410758953489
 30
0.0
  0
VERTEX
  5
552
330
54A
100
AcDbEntity
  8
Sichtbare Kanten(TC_020513_DIN)
100
AcDbVertex
100
AcDb2dVertex
 10
242.503230368512
 20
150.1470649700559
 30
0.0
  0
VERTEX
  5
553
330
54A
100
AcDbEntity
  8
Sichtbare Kanten(TC_020513_DIN)
100
AcDbVertex
100
AcDb2dVertex
 10
242.4527881497315
 20
150.1541567306913
 30
0.0
  0
VERTEX
  5
554
330
54A
100
AcDbEntity
  8
Sichtbare Kanten(TC_020513_DIN)
100
AcDbVertex
100
AcDb2dVertex
 10
242.4020216816834
 20
150.1623559456266
 30
0.0
  0
VERTEX
  5
555
330
54A
100
AcDbEntity
  8
Sichtbare Kanten(TC_020513_DIN)
100
AcDbVertex
100
AcDb2dVertex
 10
242.350961958783
 20
150.1716661911405
 30
0.0
  0
VERTEX
  5
556
330
54A
100
AcDbEntity
  8
Sichtbare Kanten(TC_020513_DIN)
100
AcDbVertex
100
AcDb2dVertex
 10
242.2996757382324
 20
150.1820874672331
 30
0.0
  0
VERTEX
  5
557
330
54A
100
AcDbEntity
  8
Sichtbare Kanten(TC_020513_DIN)
100
AcDbVertex
100
AcDb2dVertex
 10
242.2494242543152
 20
150.1933694343962
 30
0.0
  0
VERTEX
  5
558
330
54A
100
AcDbEntity
  8
Sichtbare Kanten(TC_020513_DIN)
100
AcDbVertex
100
AcDb2dVertex
 10
242.2009013050964
 20
150.2052832107939
 30
0.0
  0
VERTEX
  5
559
330
54A
100
AcDbEntity
  8
Sichtbare Kanten(TC_020513_DIN)
100
AcDbVertex
100
AcDb2dVertex
 10
242.1542022580078
 20
150.2176928978361
 30
0.0
  0
VERTEX
  5
55A
330
54A
100
AcDbEntity
  8
Sichtbare Kanten(TC_020513_DIN)
100
AcDbVertex
100
AcDb2dVertex
 10
242.1094200962952
 20
150.2304649811186
 30
0.0
  0
VERTEX
  5
55B
330
54A
100
AcDbEntity
  8
Sichtbare Kanten(TC_020513_DIN)
100
AcDbVertex
100
AcDb2dVertex
 10
242.0666501873901
 20
150.2434647541441
 30
0.0
  0
VERTEX
  5
55C
330
54A
100
AcDbEntity
  8
Sichtbare Kanten(TC_020513_DIN)
100
AcDbVertex
100
AcDb2dVertex
 10
242.0259855145386
 20
150.2565575104154
 30
0.0
  0
VERTEX
  5
55D
330
54A
100
AcDbEntity
  8
Sichtbare Kanten(TC_020513_DIN)
100
AcDbVertex
100
AcDb2dVertex
 10
241.9875214451721
 20
150.2696097355284
 30
0.0
  0
VERTEX
  5
55E
330
54A
100
AcDbEntity
  8
Sichtbare Kanten(TC_020513_DIN)
100
AcDbVertex
100
AcDb2dVertex
 10
241.9513557309082
 20
150.2824855308927
 30
0.0
  0
VERTEX
  5
55F
330
54A
100
AcDbEntity
  8
Sichtbare Kanten(TC_020513_DIN)
100
AcDbVertex
100
AcDb2dVertex
 10
241.917576586621
 20
150.2950513821043
 30
0.0
  0
VERTEX
  5
560
330
54A
100
AcDbEntity
  8
Sichtbare Kanten(TC_020513_DIN)
100
AcDbVertex
100
AcDb2dVertex
 10
241.8862817639282
 20
150.3071713905729
 30
0.0
  0
VERTEX
  5
561
330
54A
100
AcDbEntity
  8
Sichtbare Kanten(TC_020513_DIN)
100
AcDbVertex
100
AcDb2dVertex
 10
241.8575666302612
 20
150.3187132339872
 30
0.0
  0
VERTEX
  5
562
330
54A
100
AcDbEntity
  8
Sichtbare Kanten(TC_020513_DIN)
100
AcDbVertex
100
AcDb2dVertex
 10
241.8315241688659
 20
150.3295410137571
 30
0.0
  0
VERTEX
  5
563
330
54A
100
AcDbEntity
  8
Sichtbare Kanten(TC_020513_DIN)
100
AcDbVertex
100
AcDb2dVertex
 10
241.8082473629882
 20
150.3395212154783
 30
0.0
  0
VERTEX
  5
564
330
54A
100
AcDbEntity
  8
Sichtbare Kanten(TC_020513_DIN)
100
AcDbVertex
100
AcDb2dVertex
 10
241.7878315800598
 20
150.3485191326536
 30
0.0
  0
SEQEND
  5
54D
330
54A
100
AcDbEntity
  8
Sichtbare Kanten(TC_020513_DIN)
  0
LINE
  5
565
330
37
100
AcDbEntity
  8
Sichtbare Kanten(TC_020513_DIN)
100
AcDbLine
 10
244.1045853262854
 20
140.1275242392246
 30
0.0
 11
241.3045853262845
 21
140.1275242392246
 31
0.0
  0
LINE
  5
566
330
37
100
AcDbEntity
  8
Sichtbare Kanten(TC_020513_DIN)
100
AcDbLine
 10
242.7970839738702
 20
150.1275242392245
 30
0.0
 11
244.1045853262854
 21
150.1275242392245
 31
0.0
  0
LINE
  5
567
330
37
100
AcDbEntity
  8
Sichtbare Kanten(TC_020513_DIN)
100
AcDbLine
 10
244.1045853262882
 20
139.9422290005002
 30
0.0
 11
244.1045853262882
 21
140.1275242392246
 31
0.0
  0
LINE
  5
568
330
37
100
AcDbEntity
  8
Sichtbare Kanten(TC_020513_DIN)
100
AcDbLine
 10
244.1045853262884
 20
138.5673472107272
 30
0.0
 11
244.1045853262882
 21
139.9422290005002
 31
0.0
  0
LINE
  5
569
330
37
100
AcDbEntity
  8
Sichtbare Kanten(TC_020513_DIN)
100
AcDbLine
 10
214.3379480236938
 20
122.7665389042295
 30
0.0
 11
214.3379480236938
 21
122.6288839892221
 31
0.0
  0
LINE
  5
56A
330
37
100
AcDbEntity
  8
Sichtbare Kanten(TC_020513_DIN)
100
AcDbLine
 10
214.3740886853283
 20
122.7665389042295
 30
0.0
 11
214.3379480236938
 21
122.7665389042295
 31
0.0
  0
LINE
  5
56B
330
37
100
AcDbEntity
  8
Sichtbare Kanten(TC_020513_DIN)
100
AcDbLine
 10
225.3260937854134
 20
135.8101167756033
 30
0.0
 11
225.1989934300879
 21
134.3573530665327
 31
0.0
  0
ARC
  5
56C
330
37
100
AcDbEntity
  8
Sichtbare Kanten(TC_020513_DIN)
100
AcDbCircle
 10
225.8241911344593
 20
135.7665389042295
 30
0.0
 40
0.4999999999999966
100
AcDbArc
 50
128.3440606646371
 51
175.0000000000015
  0
LINE
  5
56D
330
37
100
AcDbEntity
  8
Sichtbare Kanten(TC_020513_DIN)
100
AcDbLine
 10
235.6277568515012
 20
144.1586886673224
 30
0.0
 11
225.5139999622667
 21
136.1586886673224
 31
0.0
  0
ARC
  5
56E
330
37
100
AcDbEntity
  8
Sichtbare Kanten(TC_020513_DIN)
100
AcDbCircle
 10
235.9379480236938
 20
143.7665389042295
 30
0.0
 40
0.4999999999999983
100
AcDbArc
 50
38.34406066463298
 51
128.3440606646346
  0
LINE
  5
56F
330
37
100
AcDbEntity
  8
Sichtbare Kanten(TC_020513_DIN)
100
AcDbLine
 10
239.1536484975081
 20
140.5071418948393
 30
0.0
 11
236.3300977867867
 21
144.0767300764221
 31
0.0
  0
ARC
  5
570
330
37
100
AcDbEntity
  8
Sichtbare Kanten(TC_020513_DIN)
100
AcDbCircle
 10
239.9379480236938
 20
141.1275242392246
 30
0.0
 40
1.000000000000011
100
AcDbArc
 50
218.3440606646358
 51
270.0
  0
LINE
  5
571
330
37
100
AcDbEntity
  8
Sichtbare Kanten(TC_020513_DIN)
100
AcDbLine
 10
241.3045853262845
 20
140.1275242392246
 30
0.0
 11
239.9379480236938
 21
140.1275242392246
 31
0.0
  0
LINE
  5
572
330
37
100
AcDbEntity
  8
Sichtbare Kanten(TC_020513_DIN)
100
AcDbLine
 10
237.9633935501228
 20
152.6100001730196
 30
0.0
 11
241.3045853262846
 21
150.562780488421
 31
0.0
  0
ARC
  5
573
330
37
100
AcDbEntity
  8
Sichtbare Kanten(TC_020513_DIN)
100
AcDbCircle
 10
219.6776663428656
 20
122.7665389042295
 30
0.0
 40
35.00000000000002
100
AcDbArc
 50
58.50330715785382
 51
90.0
  0
LINE
  5
574
330
37
100
AcDbEntity
  8
Sichtbare Kanten(TC_020513_DIN)
100
AcDbLine
 10
211.6776663428657
 20
157.7665389042295
 30
0.0
 11
219.6776663428657
 21
157.7665389042295
 31
0.0
  0
ARC
  5
575
330
37
100
AcDbEntity
  8
Sichtbare Kanten(TC_020513_DIN)
100
AcDbCircle
 10
211.6776663428657
 20
153.4665389042295
 30
0.0
 40
4.3
100
AcDbArc
 50
90.0
 51
298.9550243718598
  0
ARC
  5
576
330
37
100
AcDbEntity
  8
Sichtbare Kanten(TC_020513_DIN)
100
AcDbCircle
 10
215.9379480236938
 20
145.7665389042295
 30
0.0
 40
4.5
100
AcDbArc
 50
20.26853458427464
 51
118.9550243718597
  0
LINE
  5
577
330
37
100
AcDbEntity
  8
Sichtbare Kanten(TC_020513_DIN)
100
AcDbLine
 10
221.2249499793635
 20
144.4397491712437
 30
0.0
 11
220.1593049708698
 21
147.3254313073571
 31
0.0
  0
ARC
  5
578
330
37
100
AcDbEntity
  8
Sichtbare Kanten(TC_020513_DIN)
100
AcDbCircle
 10
220.7559103185661
 20
144.2665389042295
 30
0.0
 40
0.5000000000000007
100
AcDbArc
 50
325.2685345842743
 51
20.26853458427325
  0
LINE
  5
579
330
37
100
AcDbEntity
  8
Sichtbare Kanten(TC_020513_DIN)
100
AcDbLine
 10
218.9379480236938
 20
140.7665389042295
 30
0.0
 11
221.1668259600301
 21
143.9816734349282
 31
0.0
  0
LINE
  5
57A
330
37
100
AcDbEntity
  8
Sichtbare Kanten(TC_020513_DIN)
100
AcDbLine
 10
218.9379480236938
 20
139.0910942245663
 30
0.0
 11
218.9379480236938
 21
140.7665389042295
 31
0.0
  0
LINE
  5
57B
330
37
100
AcDbEntity
  8
Sichtbare Kanten(TC_020513_DIN)
100
AcDbLine
 10
211.4379480236938
 20
122.6288839892221
 30
0.0
 11
211.4379480236938
 21
122.6679267230955
 31
0.0
  0
LINE
  5
57C
330
37
100
AcDbEntity
  8
Sichtbare Kanten(TC_020513_DIN)
100
AcDbLine
 10
242.7045853262883
 20
139.9422290005002
 30
0.0
 11
242.7045853262884
 21
138.5673472107272
 31
0.0
  0
LINE
  5
57D
330
37
100
AcDbEntity
  8
Sichtbare Kanten(TC_020513_DIN)
100
AcDbLine
 10
242.7045853262882
 20
140.1275242392246
 30
0.0
 11
242.7045853262883
 21
139.9422290005002
 31
0.0
  0
LINE
  5
57E
330
37
100
AcDbEntity
  8
Sichtbare Kanten(TC_020513_DIN)
100
AcDbLine
 10
250.438860719085
 20
151.3441615418153
 30
0.0
 11
251.9212226288805
 21
151.3441615418153
 31
0.0
  0
LINE
  5
57F
330
37
100
AcDbEntity
  8
Sichtbare Kanten(TC_020513_DIN)
100
AcDbLine
 10
251.9212226288806
 20
149.9441615418153
 30
0.0
 11
250.438860719085
 21
149.9441615418153
 31
0.0
  0
LINE
  5
580
330
37
100
AcDbEntity
  8
Sichtbare Kanten(TC_020513_DIN)
100
AcDbLine
 10
251.9212226288806
 20
149.9441615418153
 30
0.0
 11
251.9212226288806
 21
151.3441615418153
 31
0.0
  0
LINE
  5
581
330
37
100
AcDbEntity
  8
Sichtbare Kanten(TC_020513_DIN)
100
AcDbLine
 10
245.5045853262888
 20
149.9441615418153
 30
0.0
 11
250.438860719085
 21
149.9441615418153
 31
0.0
  0
LINE
  5
582
330
37
100
AcDbEntity
  8
Sichtbare Kanten(TC_020513_DIN)
100
AcDbLine
 10
250.438860719085
 20
151.3441615418153
 30
0.0
 11
245.5045853262888
 21
151.3441615418153
 31
0.0
  0
LINE
  5
583
330
37
100
AcDbEntity
  8
Sichtbare Kanten(TC_020513_DIN)
100
AcDbLine
 10
214.3379480236931
 20
122.5288839892221
 30
0.0
 11
214.3379480236931
 21
121.1288839892221
 31
0.0
  0
LINE
  5
584
330
37
100
AcDbEntity
  8
Sichtbare Kanten(TC_020513_DIN)
100
AcDbLine
 10
214.3379480236931
 20
121.1288839892221
 30
0.0
 11
213.8379480236929
 21
121.1288839892221
 31
0.0
  0
LINE
  5
585
330
37
100
AcDbEntity
  8
Sichtbare Kanten(TC_020513_DIN)
100
AcDbLine
 10
213.8379480236929
 20
122.5288839892221
 30
0.0
 11
214.3379480236931
 21
122.5288839892221
 31
0.0
  0
LINE
  5
586
330
37
100
AcDbEntity
  8
Sichtbare Kanten(TC_020513_DIN)
100
AcDbLine
 10
211.9379480236929
 20
121.1288839892221
 30
0.0
 11
213.8379480236929
 21
121.1288839892221
 31
0.0
  0
LINE
  5
587
330
37
100
AcDbEntity
  8
Sichtbare Kanten(TC_020513_DIN)
100
AcDbLine
 10
213.8379480236929
 20
122.5288839892221
 30
0.0
 11
211.9379480236929
 21
122.5288839892221
 31
0.0
  0
LINE
  5
588
330
37
100
AcDbEntity
  8
Sichtbare Kanten(TC_020513_DIN)
100
AcDbLine
 10
211.9379480236929
 20
121.1288839892221
 30
0.0
 11
211.4379480236931
 21
121.1288839892221
 31
0.0
  0
LINE
  5
589
330
37
100
AcDbEntity
  8
Sichtbare Kanten(TC_020513_DIN)
100
AcDbLine
 10
211.4379480236931
 20
122.5288839892221
 30
0.0
 11
211.9379480236929
 21
122.5288839892221
 31
0.0
  0
LINE
  5
58A
330
37
100
AcDbEntity
  8
Sichtbare Kanten(TC_020513_DIN)
100
AcDbLine
 10
211.4379480236931
 20
122.5288839892221
 30
0.0
 11
211.437948023693
 21
121.1288839892221
 31
0.0
  0
LINE
  5
58B
330
37
100
AcDbEntity
  8
Sichtbare Kanten(TC_020513_DIN)
100
AcDbLine
 10
246.1619923968224
 20
130.5321687655504
 30
0.0
 11
245.5355191832337
 21
131.8756449076041
 31
0.0
  0
LINE
  5
58C
330
37
100
AcDbEntity
  8
Sichtbare Kanten(TC_020513_DIN)
100
AcDbLine
 10
247.4308232986738
 20
131.1238343319873
 30
0.0
 11
246.1619923968224
 21
130.5321687655504
 31
0.0
  0
LINE
  5
58D
330
37
100
AcDbEntity
  8
Sichtbare Kanten(TC_020513_DIN)
100
AcDbLine
 10
246.804350085085
 20
132.467310474041
 30
0.0
 11
247.4308232986738
 21
131.1238343319873
 31
0.0
  0
LINE
  5
58E
330
37
100
AcDbEntity
  8
Sichtbare Kanten(TC_020513_DIN)
100
AcDbLine
 10
242.9669235225858
 20
137.3840160778532
 30
0.0
 11
245.5355191832337
 21
131.8756449076041
 31
0.0
  0
LINE
  5
58F
330
37
100
AcDbEntity
  8
Sichtbare Kanten(TC_020513_DIN)
100
AcDbLine
 10
246.804350085085
 20
132.4673104740411
 30
0.0
 11
244.2357544244371
 21
137.9756816442902
 31
0.0
  0
POLYLINE
  5
590
330
37
100
AcDbEntity
  8
Sichtbare Kanten(TC_020513_DIN)
100
AcDb2dPolyline
 66
     1
 10
0.0
 20
0.0
 30
0.0
 70
   128
  0
VERTEX
  5
591
330
590
100
AcDbEntity
  8
Sichtbare Kanten(TC_020513_DIN)
100
AcDbVertex
100
AcDb2dVertex
 10
242.9669235104531
 20
137.3840159635938
 30
0.0
  0
VERTEX
  5
592
330
590
100
AcDbEntity
  8
Sichtbare Kanten(TC_020513_DIN)
100
AcDbVertex
100
AcDb2dVertex
 10
242.9458139294594
 20
137.4303803306021
 30
0.0
  0
VERTEX
  5
594
330
590
100
AcDbEntity
  8
Sichtbare Kanten(TC_020513_DIN)
100
AcDbVertex
100
AcDb2dVertex
 10
242.9255626553505
 20
137.4771014314092
 30
0.0
  0
VERTEX
  5
595
330
590
100
AcDbEntity
  8
Sichtbare Kanten(TC_020513_DIN)
100
AcDbVertex
100
AcDb2dVertex
 10
242.9061673039406
 20
137.5241676431097
 30
0.0
  0
VERTEX
  5
596
330
590
100
AcDbEntity
  8
Sichtbare Kanten(TC_020513_DIN)
100
AcDbVertex
100
AcDb2dVertex
 10
242.8876374119728
 20
137.5715667467512
 30
0.0
  0
VERTEX
  5
597
330
590
100
AcDbEntity
  8
Sichtbare Kanten(TC_020513_DIN)
100
AcDbVertex
100
AcDb2dVertex
 10
242.8699729794472
 20
137.619287119428
 30
0.0
  0
VERTEX
  5
598
330
590
100
AcDbEntity
  8
Sichtbare Kanten(TC_020513_DIN)
100
AcDbVertex
100
AcDb2dVertex
 10
242.8531811589211
 20
137.6673168402113
 30
0.0
  0
VERTEX
  5
599
330
590
100
AcDbEntity
  8
Sichtbare Kanten(TC_020513_DIN)
100
AcDbVertex
100
AcDb2dVertex
 10
242.8372643345802
 20
137.7156433921255
 30
0.0
  0
VERTEX
  5
59A
330
590
100
AcDbEntity
  8
Sichtbare Kanten(TC_020513_DIN)
100
AcDbVertex
100
AcDb2dVertex
 10
242.8222272747963
 20
137.7642554502882
 30
0.0
  0
VERTEX
  5
59B
330
590
100
AcDbEntity
  8
Sichtbare Kanten(TC_020513_DIN)
100
AcDbVertex
100
AcDb2dVertex
 10
242.8080747479408
 20
137.8131407957472
 30
0.0
  0
VERTEX
  5
59C
330
590
100
AcDbEntity
  8
Sichtbare Kanten(TC_020513_DIN)
100
AcDbVertex
100
AcDb2dVertex
 10
242.7948091381996
 20
137.8622872095503
 30
0.0
  0
VERTEX
  5
59D
330
590
100
AcDbEntity
  8
Sichtbare Kanten(TC_020513_DIN)
100
AcDbVertex
100
AcDb2dVertex
 10
242.7824352139442
 20
137.9116827707685
 30
0.0
  0
VERTEX
  5
59E
330
590
100
AcDbEntity
  8
Sichtbare Kanten(TC_020513_DIN)
100
AcDbVertex
100
AcDb2dVertex
 10
242.7709553593605
 20
137.9613161545194
 30
0.0
  0
VERTEX
  5
59F
330
590
100
AcDbEntity
  8
Sichtbare Kanten(TC_020513_DIN)
100
AcDbVertex
100
AcDb2dVertex
 10
242.7603838795631
 20
138.0111504059232
 30
0.0
  0
VERTEX
  5
5A0
330
590
100
AcDbEntity
  8
Sichtbare Kanten(TC_020513_DIN)
100
AcDbVertex
100
AcDb2dVertex
 10
242.7507231587379
 20
138.0611473780073
 30
0.0
  0
VERTEX
  5
5A1
330
590
100
AcDbEntity
  8
Sichtbare Kanten(TC_020513_DIN)
100
AcDbVertex
100
AcDb2dVertex
 10
242.7419755810707
 20
138.1112957458891
 30
0.0
  0
VERTEX
  5
5A2
330
590
100
AcDbEntity
  8
Sichtbare Kanten(TC_020513_DIN)
100
AcDbVertex
100
AcDb2dVertex
 10
242.7341411465614
 20
138.1615823965467
 30
0.0
  0
VERTEX
  5
5A3
330
590
100
AcDbEntity
  8
Sichtbare Kanten(TC_020513_DIN)
100
AcDbVertex
100
AcDb2dVertex
 10
242.7272270077675
 20
138.2119942169584
 30
0.0
  0
VERTEX
  5
5A4
330
590
100
AcDbEntity
  8
Sichtbare Kanten(TC_020513_DIN)
100
AcDbVertex
100
AcDb2dVertex
 10
242.7212283963172
 20
138.2625198822416
 30
0.0
  0
VERTEX
  5
5A5
330
590
100
AcDbEntity
  8
Sichtbare Kanten(TC_020513_DIN)
100
AcDbVertex
100
AcDb2dVertex
 10
242.7161476963966
 20
138.3131462793745
 30
0.0
  0
VERTEX
  5
5A6
330
590
100
AcDbEntity
  8
Sichtbare Kanten(TC_020513_DIN)
100
AcDbVertex
100
AcDb2dVertex
 10
242.7119896763771
 20
138.3638602953352
 30
0.0
  0
VERTEX
  5
5A7
330
590
100
AcDbEntity
  8
Sichtbare Kanten(TC_020513_DIN)
100
AcDbVertex
100
AcDb2dVertex
 10
242.7087519520729
 20
138.4146500091947
 30
0.0
  0
VERTEX
  5
5A8
330
590
100
AcDbEntity
  8
Sichtbare Kanten(TC_020513_DIN)
100
AcDbVertex
100
AcDb2dVertex
 10
242.7064392918556
 20
138.4655029039778
 30
0.0
  0
VERTEX
  5
5A9
330
590
100
AcDbEntity
  8
Sichtbare Kanten(TC_020513_DIN)
100
AcDbVertex
100
AcDb2dVertex
 10
242.7050493115394
 20
138.5164058666624
 30
0.0
  0
VERTEX
  5
5AA
330
590
100
AcDbEntity
  8
Sichtbare Kanten(TC_020513_DIN)
100
AcDbVertex
100
AcDb2dVertex
 10
242.7045843953102
 20
138.5673469763197
 30
0.0
  0
SEQEND
  5
593
330
590
100
AcDbEntity
  8
Sichtbare Kanten(TC_020513_DIN)
  0
LINE
  5
5AB
330
37
100
AcDbEntity
  8
Sichtbare Kanten(TC_020513_DIN)
100
AcDbLine
 10
243.6774653356764
 20
137.7153471667367
 30
0.0
 11
242.9669235225858
 21
137.3840160778532
 31
0.0
  0
LINE
  5
5AC
330
37
100
AcDbEntity
  8
Sichtbare Kanten(TC_020513_DIN)
100
AcDbLine
 10
244.2357544244371
 20
137.9756816442902
 30
0.0
 11
243.6774653356764
 21
137.7153471667367
 31
0.0
  0
POLYLINE
  5
5AD
330
37
100
AcDbEntity
  8
Sichtbare Kanten(TC_020513_DIN)
100
AcDb2dPolyline
 66
     1
 10
0.0
 20
0.0
 30
0.0
 70
   128
  0
VERTEX
  5
5AE
330
5AD
100
AcDbEntity
  8
Sichtbare Kanten(TC_020513_DIN)
100
AcDbVertex
100
AcDb2dVertex
 10
244.1045854443519
 20
138.5673469763197
 30
0.0
  0
VERTEX
  5
5AF
330
5AD
100
AcDbEntity
  8
Sichtbare Kanten(TC_020513_DIN)
100
AcDbVertex
100
AcDb2dVertex
 10
244.1048167103736
 20
138.5418767195143
 30
0.0
  0
VERTEX
  5
5B1
330
5AD
100
AcDbEntity
  8
Sichtbare Kanten(TC_020513_DIN)
100
AcDbVertex
100
AcDb2dVertex
 10
244.1055128926246
 20
138.5164249401487
 30
0.0
  0
VERTEX
  5
5B2
330
5AD
100
AcDbEntity
  8
Sichtbare Kanten(TC_020513_DIN)
100
AcDbVertex
100
AcDb2dVertex
 10
244.1066692227333
 20
138.4909987907804
 30
0.0
  0
VERTEX
  5
5B3
330
5AD
100
AcDbEntity
  8
Sichtbare Kanten(TC_020513_DIN)
100
AcDbVertex
100
AcDb2dVertex
 10
244.1082880848854
 20
138.4656036358274
 30
0.0
  0
VERTEX
  5
5B4
330
5AD
100
AcDbEntity
  8
Sichtbare Kanten(TC_020513_DIN)
100
AcDbVertex
100
AcDb2dVertex
 10
244.1103670948951
 20
138.4402466278471
 30
0.0
  0
VERTEX
  5
5B5
330
5AD
100
AcDbEntity
  8
Sichtbare Kanten(TC_020513_DIN)
100
AcDbVertex
100
AcDb2dVertex
 10
244.1129062527626
 20
138.4149337273039
 30
0.0
  0
VERTEX
  5
5B6
330
5AD
100
AcDbEntity
  8
Sichtbare Kanten(TC_020513_DIN)
100
AcDbVertex
100
AcDb2dVertex
 10
244.1159055584877
 20
138.3896708946623
 30
0.0
  0
VERTEX
  5
5B7
330
5AD
100
AcDbEntity
  8
Sichtbare Kanten(TC_020513_DIN)
100
AcDbVertex
100
AcDb2dVertex
 10
244.1193626278846
 20
138.3644646864332
 30
0.0
  0
VERTEX
  5
5B8
330
5AD
100
AcDbEntity
  8
Sichtbare Kanten(TC_020513_DIN)
100
AcDbVertex
100
AcDb2dVertex
 10
244.1232798451393
 20
138.3393216591276
 30
0.0
  0
VERTEX
  5
5B9
330
5AD
100
AcDbEntity
  8
Sichtbare Kanten(TC_020513_DIN)
100
AcDbVertex
100
AcDb2dVertex
 10
244.1276548260658
 20
138.3142471771635
 30
0.0
  0
VERTEX
  5
5BA
330
5AD
100
AcDbEntity
  8
Sichtbare Kanten(TC_020513_DIN)
100
AcDbVertex
100
AcDb2dVertex
 10
244.1324851864784
 20
138.2892489891447
 30
0.0
  0
VERTEX
  5
5BB
330
5AD
100
AcDbEntity
  8
Sichtbare Kanten(TC_020513_DIN)
100
AcDbVertex
100
AcDb2dVertex
 10
244.1377709263771
 20
138.2643318634428
 30
0.0
  0
VERTEX
  5
5BC
330
5AD
100
AcDbEntity
  8
Sichtbare Kanten(TC_020513_DIN)
100
AcDbVertex
100
AcDb2dVertex
 10
244.143509661576
 20
138.2395148735441
 30
0.0
  0
VERTEX
  5
5BD
330
5AD
100
AcDbEntity
  8
Sichtbare Kanten(TC_020513_DIN)
100
AcDbVertex
100
AcDb2dVertex
 10
244.1496966237037
 20
138.214817092935
 30
0.0
  0
VERTEX
  5
5BE
330
5AD
100
AcDbEntity
  8
Sichtbare Kanten(TC_020513_DIN)
100
AcDbVertex
100
AcDb2dVertex
 10
244.1563294285743
 20
138.1902438860334
 30
0.0
  0
VERTEX
  5
5BF
330
5AD
100
AcDbEntity
  8
Sichtbare Kanten(TC_020513_DIN)
100
AcDbVertex
100
AcDb2dVertex
 10
244.1634056920021
 20
138.1658012133039
 30
0.0
  0
VERTEX
  5
5C0
330
5AD
100
AcDbEntity
  8
Sichtbare Kanten(TC_020513_DIN)
100
AcDbVertex
100
AcDb2dVertex
 10
244.170925413987
 20
138.141495035211
 30
0.0
  0
VERTEX
  5
5C1
330
5AD
100
AcDbEntity
  8
Sichtbare Kanten(TC_020513_DIN)
100
AcDbVertex
100
AcDb2dVertex
 10
244.1788838261574
 20
138.1173319082655
 30
0.0
  0
VERTEX
  5
5C2
330
5AD
100
AcDbEntity
  8
Sichtbare Kanten(TC_020513_DIN)
100
AcDbVertex
100
AcDb2dVertex
 10
244.1872785443276
 20
138.0933171968855
 30
0.0
  0
VERTEX
  5
5C3
330
5AD
100
AcDbEntity
  8
Sichtbare Kanten(TC_020513_DIN)
100
AcDbVertex
100
AcDb2dVertex
 10
244.1961119526833
 20
138.0694568615354
 30
0.0
  0
VERTEX
  5
5C4
330
5AD
100
AcDbEntity
  8
Sichtbare Kanten(TC_020513_DIN)
100
AcDbVertex
100
AcDb2dVertex
 10
244.2053768986672
 20
138.0457574587263
 30
0.0
  0
VERTEX
  5
5C5
330
5AD
100
AcDbEntity
  8
Sichtbare Kanten(TC_020513_DIN)
100
AcDbVertex
100
AcDb2dVertex
 10
244.2150733822792
 20
138.0222243528761
 30
0.0
  0
VERTEX
  5
5C6
330
5AD
100
AcDbEntity
  8
Sichtbare Kanten(TC_020513_DIN)
100
AcDbVertex
100
AcDb2dVertex
 10
244.2251990193337
 20
137.9988635044492
 30
0.0
  0
VERTEX
  5
5C7
330
5AD
100
AcDbEntity
  8
Sichtbare Kanten(TC_020513_DIN)
100
AcDbVertex
100
AcDb2dVertex
 10
244.2357538098305
 20
137.9756814699568
 30
0.0
  0
SEQEND
  5
5B0
330
5AD
100
AcDbEntity
  8
Sichtbare Kanten(TC_020513_DIN)
  0
LINE
  5
5C8
330
37
100
AcDbEntity
  8
Sichtbare Kanten(TC_020513_DIN)
100
AcDbLine
 10
243.4885814733505
 20
138.5673472107272
 30
0.0
 11
244.1045853262884
 21
138.5673472107272
 31
0.0
  0
LINE
  5
5C9
330
37
100
AcDbEntity
  8
Sichtbare Kanten(TC_020513_DIN)
100
AcDbLine
 10
242.7045853262884
 20
138.5673472107272
 30
0.0
 11
243.4885814733505
 21
138.5673472107272
 31
0.0
  0
LINE
  5
5CA
330
37
100
AcDbEntity
  8
Sichtbare Kanten(TC_020513_DIN)
100
AcDbLine
 10
211.4379480236938
 20
122.6288839892221
 30
0.0
 11
211.4379480236938
 21
122.5288839892221
 31
0.0
  0
LINE
  5
5CB
330
37
100
AcDbEntity
  8
Sichtbare Kanten(TC_020513_DIN)
100
AcDbLine
 10
214.3379480236938
 20
122.5288839892221
 30
0.0
 11
214.3379480236938
 21
122.6288839892221
 31
0.0
  0
POLYLINE
  5
5CC
330
37
100
AcDbEntity
  8
Sichtbare Kanten(TC_020513_DIN)
100
AcDb2dPolyline
 66
     1
 10
0.0
 20
0.0
 30
0.0
 70
   128
  0
VERTEX
  5
5CD
330
5CC
100
AcDbEntity
  8
Sichtbare Kanten(TC_020513_DIN)
100
AcDbVertex
100
AcDb2dVertex
 10
243.195266520402
 20
150.1275241833128
 30
0.0
  0
VERTEX
  5
5CE
330
5CC
100
AcDbEntity
  8
Sichtbare Kanten(TC_020513_DIN)
100
AcDbVertex
100
AcDb2dVertex
 10
243.260979449174
 20
150.2193415623106
 30
0.0
  0
VERTEX
  5
5D0
330
5CC
100
AcDbEntity
  8
Sichtbare Kanten(TC_020513_DIN)
100
AcDbVertex
100
AcDb2dVertex
 10
243.33041170778
 20
150.3085208397306
 30
0.0
  0
VERTEX
  5
5D1
330
5CC
100
AcDbEntity
  8
Sichtbare Kanten(TC_020513_DIN)
100
AcDbVertex
100
AcDb2dVertex
 10
243.4034893864604
 20
150.3949428062834
 30
0.0
  0
VERTEX
  5
5D2
330
5CC
100
AcDbEntity
  8
Sichtbare Kanten(TC_020513_DIN)
100
AcDbVertex
100
AcDb2dVertex
 10
243.4800980442973
 20
150.478445337335
 30
0.0
  0
VERTEX
  5
5D3
330
5CC
100
AcDbEntity
  8
Sichtbare Kanten(TC_020513_DIN)
100
AcDbVertex
100
AcDb2dVertex
 10
243.5599158162089
 20
150.5586743812956
 30
0.0
  0
VERTEX
  5
5D4
330
5CC
100
AcDbEntity
  8
Sichtbare Kanten(TC_020513_DIN)
100
AcDbVertex
100
AcDb2dVertex
 10
243.6427948826763
 20
150.6355095367826
 30
0.0
  0
VERTEX
  5
5D5
330
5CC
100
AcDbEntity
  8
Sichtbare Kanten(TC_020513_DIN)
100
AcDbVertex
100
AcDb2dVertex
 10
243.728623186967
 20
150.7088673572935
 30
0.0
  0
VERTEX
  5
5D6
330
5CC
100
AcDbEntity
  8
Sichtbare Kanten(TC_020513_DIN)
100
AcDbVertex
100
AcDb2dVertex
 10
243.8172886723491
 20
150.7786691646971
 30
0.0
  0
VERTEX
  5
5D7
330
5CC
100
AcDbEntity
  8
Sichtbare Kanten(TC_020513_DIN)
100
AcDbVertex
100
AcDb2dVertex
 10
243.9086816662761
 20
150.8448315124906
 30
0.0
  0
VERTEX
  5
5D8
330
5CC
100
AcDbEntity
  8
Sichtbare Kanten(TC_020513_DIN)
100
AcDbVertex
100
AcDb2dVertex
 10
244.0026877278301
 20
150.9072733383573
 30
0.0
  0
VERTEX
  5
5D9
330
5CC
100
AcDbEntity
  8
Sichtbare Kanten(TC_020513_DIN)
100
AcDbVertex
100
AcDb2dVertex
 10
244.0991971844646
 20
150.9659123878874
 30
0.0
  0
VERTEX
  5
5DA
330
5CC
100
AcDbEntity
  8
Sichtbare Kanten(TC_020513_DIN)
100
AcDbVertex
100
AcDb2dVertex
 10
244.1980955952617
 20
151.0206675987638
 30
0.0
  0
VERTEX
  5
5DB
330
5CC
100
AcDbEntity
  8
Sichtbare Kanten(TC_020513_DIN)
100
AcDbVertex
100
AcDb2dVertex
 10
244.2992732876751
 20
151.0714567165769
 30
0.0
  0
VERTEX
  5
5DC
330
5CC
100
AcDbEntity
  8
Sichtbare Kanten(TC_020513_DIN)
100
AcDbVertex
100
AcDb2dVertex
 10
244.4025395268413
 20
151.1181653004087
 30
0.0
  0
VERTEX
  5
5DD
330
5CC
100
AcDbEntity
  8
Sichtbare Kanten(TC_020513_DIN)
100
AcDbVertex
100
AcDb2dVertex
 10
244.5075414532634
 20
151.1606288414396
 30
0.0
  0
VERTEX
  5
5DE
330
5CC
100
AcDbEntity
  8
Sichtbare Kanten(TC_020513_DIN)
100
AcDbVertex
100
AcDb2dVertex
 10
244.6141312474224
 20
151.198797271768
 30
0.0
  0
VERTEX
  5
5DF
330
5CC
100
AcDbEntity
  8
Sichtbare Kanten(TC_020513_DIN)
100
AcDbVertex
100
AcDb2dVertex
 10
244.7221801632854
 20
151.2326252918638
 30
0.0
  0
VERTEX
  5
5E0
330
5CC
100
AcDbEntity
  8
Sichtbare Kanten(TC_020513_DIN)
100
AcDbVertex
100
AcDb2dVertex
 10
244.8315523022625
 20
151.2620699863829
 30
0.0
  0
VERTEX
  5
5E1
330
5CC
100
AcDbEntity
  8
Sichtbare Kanten(TC_020513_DIN)
100
AcDbVertex
100
AcDb2dVertex
 10
244.9421022290203
 20
151.2870824795164
 30
0.0
  0
VERTEX
  5
5E2
330
5CC
100
AcDbEntity
  8
Sichtbare Kanten(TC_020513_DIN)
100
AcDbVertex
100
AcDb2dVertex
 10
245.053519999406
 20
151.3075900535978
 30
0.0
  0
VERTEX
  5
5E3
330
5CC
100
AcDbEntity
  8
Sichtbare Kanten(TC_020513_DIN)
100
AcDbVertex
100
AcDb2dVertex
 10
245.1656148785564
 20
151.3235676746763
 30
0.0
  0
VERTEX
  5
5E4
330
5CC
100
AcDbEntity
  8
Sichtbare Kanten(TC_020513_DIN)
100
AcDbVertex
100
AcDb2dVertex
 10
245.2782509678814
 20
151.3349986534513
 30
0.0
  0
VERTEX
  5
5E5
330
5CC
100
AcDbEntity
  8
Sichtbare Kanten(TC_020513_DIN)
100
AcDbVertex
100
AcDb2dVertex
 10
245.3912876004193
 20
151.3418686848081
 30
0.0
  0
VERTEX
  5
5E6
330
5CC
100
AcDbEntity
  8
Sichtbare Kanten(TC_020513_DIN)
100
AcDbVertex
100
AcDb2dVertex
 10
245.5045864933941
 20
151.3441610794462
 30
0.0
  0
SEQEND
  5
5CF
330
5CC
100
AcDbEntity
  8
Sichtbare Kanten(TC_020513_DIN)
  0
POLYLINE
  5
5E7
330
37
100
AcDbEntity
  8
Sichtbare Kanten(TC_020513_DIN)
100
AcDb2dPolyline
 66
     1
 10
0.0
 20
0.0
 30
0.0
 70
   128
  0
VERTEX
  5
5E8
330
5E7
100
AcDbEntity
  8
Sichtbare Kanten(TC_020513_DIN)
100
AcDbVertex
100
AcDb2dVertex
 10
245.5045864933941
 20
149.9441612224974
 30
0.0
  0
VERTEX
  5
5E9
330
5E7
100
AcDbEntity
  8
Sichtbare Kanten(TC_020513_DIN)
100
AcDbVertex
100
AcDb2dVertex
 10
245.4329393261883
 20
149.9423265915312
 30
0.0
  0
VERTEX
  5
5EB
330
5E7
100
AcDbEntity
  8
Sichtbare Kanten(TC_020513_DIN)
100
AcDbVertex
100
AcDb2dVertex
 10
245.3616259449932
 20
149.9368429642118
 30
0.0
  0
VERTEX
  5
5EC
330
5E7
100
AcDbEntity
  8
Sichtbare Kanten(TC_020513_DIN)
100
AcDbVertex
100
AcDb2dVertex
 10
245.2907798642132
 20
149.9277377586759
 30
0.0
  0
VERTEX
  5
5ED
330
5E7
100
AcDbEntity
  8
Sichtbare Kanten(TC_020513_DIN)
100
AcDbVertex
100
AcDb2dVertex
 10
245.2205369824383
 20
149.9150419693388
 30
0.0
  0
VERTEX
  5
5EE
330
5E7
100
AcDbEntity
  8
Sichtbare Kanten(TC_020513_DIN)
100
AcDbVertex
100
AcDb2dVertex
 10
245.1510379666302
 20
149.8987842064298
 30
0.0
  0
VERTEX
  5
5EF
330
5E7
100
AcDbEntity
  8
Sichtbare Kanten(TC_020513_DIN)
100
AcDbVertex
100
AcDb2dVertex
 10
245.0824163311931
 20
149.8789918880857
 30
0.0
  0
VERTEX
  5
5F0
330
5E7
100
AcDbEntity
  8
Sichtbare Kanten(TC_020513_DIN)
100
AcDbVertex
100
AcDb2dVertex
 10
245.0148127430889
 20
149.8556960087217
 30
0.0
  0
VERTEX
  5
5F1
330
5E7
100
AcDbEntity
  8
Sichtbare Kanten(TC_020513_DIN)
100
AcDbVertex
100
AcDb2dVertex
 10
244.9483631009075
 20
149.8289251785673
 30
0.0
  0
VERTEX
  5
5F2
330
5E7
100
AcDbEntity
  8
Sichtbare Kanten(TC_020513_DIN)
100
AcDbVertex
100
AcDb2dVertex
 10
244.8833225125286
 20
149.7987664204038
 30
0.0
  0
VERTEX
  5
5F3
330
5E7
100
AcDbEntity
  8
Sichtbare Kanten(TC_020513_DIN)
100
AcDbVertex
100
AcDb2dVertex
 10
244.8200390690776
 20
149.7653878193296
 30
0.0
  0
VERTEX
  5
5F4
330
5E7
100
AcDbEntity
  8
Sichtbare Kanten(TC_020513_DIN)
100
AcDbVertex
100
AcDb2dVertex
 10
244.7586295956584
 20
149.728876398126
 30
0.0
  0
VERTEX
  5
5F5
330
5E7
100
AcDbEntity
  8
Sichtbare Kanten(TC_020513_DIN)
100
AcDbVertex
100
AcDb2dVertex
 10
244.6992109173747
 20
149.689312027017
 30
0.0
  0
VERTEX
  5
5F6
330
5E7
100
AcDbEntity
  8
Sichtbare Kanten(TC_020513_DIN)
100
AcDbVertex
100
AcDb2dVertex
 10
244.6418950909587
 20
149.6467781525053
 30
0.0
  0
VERTEX
  5
5F7
330
5E7
100
AcDbEntity
  8
Sichtbare Kanten(TC_020513_DIN)
100
AcDbVertex
100
AcDb2dVertex
 10
244.5867965573283
 20
149.6013570290006
 30
0.0
  0
VERTEX
  5
5F8
330
5E7
100
AcDbEntity
  8
Sichtbare Kanten(TC_020513_DIN)
100
AcDbVertex
100
AcDb2dVertex
 10
244.5340273732157
 20
149.55312971882
 30
0.0
  0
VERTEX
  5
5F9
330
5E7
100
AcDbEntity
  8
Sichtbare Kanten(TC_020513_DIN)
100
AcDbVertex
100
AcDb2dVertex
 10
244.483701979539
 20
149.502179668466
 30
0.0
  0
VERTEX
  5
5FA
330
5E7
100
AcDbEntity
  8
Sichtbare Kanten(TC_020513_DIN)
100
AcDbVertex
100
AcDb2dVertex
 10
244.4359872693034
 20
149.4486499290861
 30
0.0
  0
VERTEX
  5
5FB
330
5E7
100
AcDbEntity
  8
Sichtbare Kanten(TC_020513_DIN)
100
AcDbVertex
100
AcDb2dVertex
 10
244.3911526555033
 20
149.3928468685545
 30
0.0
  0
VERTEX
  5
5FC
330
5E7
100
AcDbEntity
  8
Sichtbare Kanten(TC_020513_DIN)
100
AcDbVertex
100
AcDb2dVertex
 10
244.3492839688273
 20
149.3349075775541
 30
0.0
  0
VERTEX
  5
5FD
330
5E7
100
AcDbEntity
  8
Sichtbare Kanten(TC_020513_DIN)
100
AcDbVertex
100
AcDb2dVertex
 10
244.3104575032206
 20
149.2749524574674
 30
0.0
  0
VERTEX
  5
5FE
330
5E7
100
AcDbEntity
  8
Sichtbare Kanten(TC_020513_DIN)
100
AcDbVertex
100
AcDb2dVertex
 10
244.2747424000712
 20
149.2131031017698
 30
0.0
  0
VERTEX
  5
5FF
330
5E7
100
AcDbEntity
  8
Sichtbare Kanten(TC_020513_DIN)
100
AcDbVertex
100
AcDb2dVertex
 10
244.2422101849528
 20
149.1494775276579
 30
0.0
  0
VERTEX
  5
600
330
5E7
100
AcDbEntity
  8
Sichtbare Kanten(TC_020513_DIN)
100
AcDbVertex
100
AcDb2dVertex
 10
244.2129347676249
 20
149.0841985206999
 30
0.0
  0
VERTEX
  5
601
330
5E7
100
AcDbEntity
  8
Sichtbare Kanten(TC_020513_DIN)
100
AcDbVertex
100
AcDb2dVertex
 10
244.186990057847
 20
149.0173852901853
 30
0.0
  0
SEQEND
  5
5EA
330
5E7
100
AcDbEntity
  8
Sichtbare Kanten(TC_020513_DIN)
  0
LINE
  5
602
330
37
100
AcDbEntity
  8
Sichtbare Kanten(TC_020513_DIN)
100
AcDbLine
 10
245.5045853262888
 20
150.5601626720959
 30
0.0
 11
245.5045853262888
 21
149.9441615418153
 31
0.0
  0
LINE
  5
603
330
37
100
AcDbEntity
  8
Sichtbare Kanten(TC_020513_DIN)
100
AcDbLine
 10
245.5045853262888
 20
151.3441615418153
 30
0.0
 11
245.5045853262888
 21
150.5601626720959
 31
0.0
  0
POLYLINE
  5
604
330
37
100
AcDbEntity
  8
Sichtbare Kanten(TC_020513_DIN)
100
AcDb2dPolyline
 66
     1
 10
0.0
 20
0.0
 30
0.0
 70
   128
  0
VERTEX
  5
605
330
604
100
AcDbEntity
  8
Sichtbare Kanten(TC_020513_DIN)
100
AcDbVertex
100
AcDb2dVertex
 10
244.186990057847
 20
149.0173852901853
 30
0.0
  0
VERTEX
  5
606
330
604
100
AcDbEntity
  8
Sichtbare Kanten(TC_020513_DIN)
100
AcDbVertex
100
AcDb2dVertex
 10
244.1820953244181
 20
149.003493831674
 30
0.0
  0
VERTEX
  5
608
330
604
100
AcDbEntity
  8
Sichtbare Kanten(TC_020513_DIN)
100
AcDbVertex
100
AcDb2dVertex
 10
244.1767976635905
 20
148.9878464203275
 30
0.0
  0
VERTEX
  5
609
330
604
100
AcDbEntity
  8
Sichtbare Kanten(TC_020513_DIN)
100
AcDbVertex
100
AcDb2dVertex
 10
244.1711805218668
 20
148.9705384235777
 30
0.0
  0
VERTEX
  5
60A
330
604
100
AcDbEntity
  8
Sichtbare Kanten(TC_020513_DIN)
100
AcDbVertex
100
AcDb2dVertex
 10
244.1653344983072
 20
148.9516699772276
 30
0.0
  0
VERTEX
  5
60B
330
604
100
AcDbEntity
  8
Sichtbare Kanten(TC_020513_DIN)
100
AcDbVertex
100
AcDb2dVertex
 10
244.1593430394144
 20
148.9313388328947
 30
0.0
  0
VERTEX
  5
60C
330
604
100
AcDbEntity
  8
Sichtbare Kanten(TC_020513_DIN)
100
AcDbVertex
100
AcDb2dVertex
 10
244.1532991284342
 20
148.9096427421964
 30
0.0
  0
VERTEX
  5
60D
330
604
100
AcDbEntity
  8
Sichtbare Kanten(TC_020513_DIN)
100
AcDbVertex
100
AcDb2dVertex
 10
244.1472862118692
 20
148.8866818409361
 30
0.0
  0
VERTEX
  5
60E
330
604
100
AcDbEntity
  8
Sichtbare Kanten(TC_020513_DIN)
100
AcDbVertex
100
AcDb2dVertex
 10
244.1413925045939
 20
148.8625526886381
 30
0.0
  0
VERTEX
  5
60F
330
604
100
AcDbEntity
  8
Sichtbare Kanten(TC_020513_DIN)
100
AcDbVertex
100
AcDb2dVertex
 10
244.1357062214823
 20
148.83735303692
 30
0.0
  0
VERTEX
  5
610
330
604
100
AcDbEntity
  8
Sichtbare Kanten(TC_020513_DIN)
100
AcDbVertex
100
AcDb2dVertex
 10
244.1303155774088
 20
148.8111842136778
 30
0.0
  0
VERTEX
  5
611
330
604
100
AcDbEntity
  8
Sichtbare Kanten(TC_020513_DIN)
100
AcDbVertex
100
AcDb2dVertex
 10
244.1253087872476
 20
148.7841415863432
 30
0.0
  0
VERTEX
  5
612
330
604
100
AcDbEntity
  8
Sichtbare Kanten(TC_020513_DIN)
100
AcDbVertex
100
AcDb2dVertex
 10
244.1208265179605
 20
148.7568951111234
 30
0.0
  0
VERTEX
  5
613
330
604
100
AcDbEntity
  8
Sichtbare Kanten(TC_020513_DIN)
100
AcDbVertex
100
AcDb2dVertex
 10
244.1170356625528
 20
148.7310076218046
 30
0.0
  0
VERTEX
  5
614
330
604
100
AcDbEntity
  8
Sichtbare Kanten(TC_020513_DIN)
100
AcDbVertex
100
AcDb2dVertex
 10
244.1138861531229
 20
148.7065709095396
 30
0.0
  0
VERTEX
  5
615
330
604
100
AcDbEntity
  8
Sichtbare Kanten(TC_020513_DIN)
100
AcDbVertex
100
AcDb2dVertex
 10
244.1113183850259
 20
148.6835945110716
 30
0.0
  0
VERTEX
  5
616
330
604
100
AcDbEntity
  8
Sichtbare Kanten(TC_020513_DIN)
100
AcDbVertex
100
AcDb2dVertex
 10
244.1092703694315
 20
148.6620879631437
 30
0.0
  0
VERTEX
  5
617
330
604
100
AcDbEntity
  8
Sichtbare Kanten(TC_020513_DIN)
100
AcDbVertex
100
AcDb2dVertex
 10
244.1076872700662
 20
148.642063186685
 30
0.0
  0
VERTEX
  5
618
330
604
100
AcDbEntity
  8
Sichtbare Kanten(TC_020513_DIN)
100
AcDbVertex
100
AcDb2dVertex
 10
244.1065094822854
 20
148.6235273342527
 30
0.0
  0
VERTEX
  5
619
330
604
100
AcDbEntity
  8
Sichtbare Kanten(TC_020513_DIN)
100
AcDbVertex
100
AcDb2dVertex
 10
244.1056726330728
 20
148.606491134683
 30
0.0
  0
VERTEX
  5
61A
330
604
100
AcDbEntity
  8
Sichtbare Kanten(TC_020513_DIN)
100
AcDbVertex
100
AcDb2dVertex
 10
244.1051242703408
 20
148.5909653168119
 30
0.0
  0
VERTEX
  5
61B
330
604
100
AcDbEntity
  8
Sichtbare Kanten(TC_020513_DIN)
100
AcDbVertex
100
AcDb2dVertex
 10
244.1048000210732
 20
148.5769594173826
 30
0.0
  0
VERTEX
  5
61C
330
604
100
AcDbEntity
  8
Sichtbare Kanten(TC_020513_DIN)
100
AcDbVertex
100
AcDb2dVertex
 10
244.1046402806252
 20
148.5644841652311
 30
0.0
  0
VERTEX
  5
61D
330
604
100
AcDbEntity
  8
Sichtbare Kanten(TC_020513_DIN)
100
AcDbVertex
100
AcDb2dVertex
 10
244.1045902127236
 20
148.5535479050077
 30
0.0
  0
VERTEX
  5
61E
330
604
100
AcDbEntity
  8
Sichtbare Kanten(TC_020513_DIN)
100
AcDbVertex
100
AcDb2dVertex
 10
244.104585444352
 20
148.5441613655485
 30
0.0
  0
SEQEND
  5
607
330
604
100
AcDbEntity
  8
Sichtbare Kanten(TC_020513_DIN)
  0
CIRCLE
  5
61F
330
37
100
AcDbEntity
  8
Sichtbare Kanten(TC_020513_DIN)
100
AcDbCircle
 10
215.937948023695
 20
99.34653890422953
 30
0.0
 40
7.580000000000022
  0
CIRCLE
  5
620
330
37
100
AcDbEntity
  8
Sichtbare Kanten(TC_020513_DIN)
100
AcDbCircle
 10
215.9379480236911
 20
99.34653890422953
 30
0.0
 40
10.58000000000002
  0
LINE
  5
621
330
37
100
AcDbEntity
  8
Sichtbare Kanten(TC_020513_DIN)
100
AcDbLine
 10
228.2679480236911
 20
99.34653890422953
 30
0.0
 11
228.2679480236911
 21
86.76653890422954
 31
0.0
  0
ARC
  5
622
330
37
100
AcDbEntity
  8
Sichtbare Kanten(TC_020513_DIN)
100
AcDbCircle
 10
215.9379480236911
 20
99.34653890422953
 30
0.0
 40
12.33
100
AcDbArc
 50
0.0
 51
180.0
  0
LINE
  5
623
330
37
100
AcDbEntity
  8
Sichtbare Kanten(TC_020513_DIN)
100
AcDbLine
 10
203.6079480236911
 20
86.76653890422954
 30
0.0
 11
203.6079480236911
 21
99.34653890422957
 31
0.0
  0
LINE
  5
624
330
37
100
AcDbEntity
  8
Sichtbare Kanten(TC_020513_DIN)
100
AcDbLine
 10
241.9379480236911
 20
82.76653890422954
 30
0.0
 11
189.9379480236911
 21
82.76653890422954
 31
0.0
  0
LINE
  5
625
330
37
100
AcDbEntity
  8
Sichtbare Kanten(TC_020513_DIN)
100
AcDbLine
 10
203.6079480236911
 20
86.76653890422954
 30
0.0
 11
189.9379480236911
 21
86.76653890422954
 31
0.0
  0
LINE
  5
626
330
37
100
AcDbEntity
  8
Sichtbare Kanten(TC_020513_DIN)
100
AcDbLine
 10
241.9379480236911
 20
86.76653890422954
 30
0.0
 11
228.2679480236911
 21
86.76653890422954
 31
0.0
  0
LINE
  5
627
330
37
100
AcDbEntity
  8
Sichtbare Kanten(TC_020513_DIN)
100
AcDbLine
 10
189.9379480236911
 20
82.76653890422954
 30
0.0
 11
189.9379480236911
 21
86.76653890422954
 31
0.0
  0
LINE
  5
628
330
37
100
AcDbEntity
  8
Sichtbare Kanten(TC_020513_DIN)
100
AcDbLine
 10
241.9379480236911
 20
82.76653890422954
 30
0.0
 11
241.9379480236911
 21
86.76653890422954
 31
0.0
  0
LINE
  5
629
330
37
100
AcDbEntity
  8
Sichtbare Kanten(TC_020513_DIN)
100
AcDbLine
 10
193.8879480236963
 20
139.7665389042295
 30
0.0
 11
193.8879480236963
 21
135.7665389042295
 31
0.0
  0
LINE
  5
62A
330
37
100
AcDbEntity
  8
Sichtbare Kanten(TC_020513_DIN)
100
AcDbLine
 10
199.6879480236947
 20
139.7665389042295
 30
0.0
 11
193.8879480236963
 21
139.7665389042295
 31
0.0
  0
LINE
  5
62B
330
37
100
AcDbEntity
  8
Sichtbare Kanten(TC_020513_DIN)
100
AcDbLine
 10
199.6879480236946
 20
139.7665389042295
 30
0.0
 11
218.9379480236947
 21
139.7665389042295
 31
0.0
  0
LINE
  5
62C
330
37
100
AcDbEntity
  8
Sichtbare Kanten(TC_020513_DIN)
100
AcDbLine
 10
230.0751149858733
 20
139.7665389042295
 30
0.0
 11
232.1879480236947
 21
139.7665389042295
 31
0.0
  0
LINE
  5
62D
330
37
100
AcDbEntity
  8
Sichtbare Kanten(TC_020513_DIN)
100
AcDbLine
 10
237.9879480236964
 20
139.7665389042295
 30
0.0
 11
237.9879480236964
 21
135.7665389042295
 31
0.0
  0
LINE
  5
62E
330
37
100
AcDbEntity
  8
Sichtbare Kanten(TC_020513_DIN)
100
AcDbLine
 10
237.9879480236964
 20
139.7665389042295
 30
0.0
 11
232.1879480236947
 21
139.7665389042295
 31
0.0
  0
CIRCLE
  5
62F
330
37
100
AcDbEntity
  8
Sichtbare Kanten(TC_020513_DIN)
100
AcDbCircle
 10
215.9379480236928
 20
132.7665389042295
 30
0.0
 40
4.700000000000002
  0
LINE
  5
630
330
37
100
AcDbEntity
  8
Sichtbare Kanten(TC_020513_DIN)
100
AcDbLine
 10
193.6879480236964
 20
135.7665389042295
 30
0.0
 11
199.6879480236946
 21
135.7665389042295
 31
0.0
  0
LINE
  5
631
330
37
100
AcDbEntity
  8
Sichtbare Kanten(TC_020513_DIN)
100
AcDbLine
 10
193.6879480236964
 20
86.76653890422954
 30
0.0
 11
193.6879480236964
 21
135.7665389042295
 31
0.0
  0
LINE
  5
632
330
37
100
AcDbEntity
  8
Sichtbare Kanten(TC_020513_DIN)
100
AcDbLine
 10
232.1879480236946
 20
135.7665389042295
 30
0.0
 11
225.3222812156884
 21
135.7665389042295
 31
0.0
  0
LINE
  5
633
330
37
100
AcDbEntity
  8
Sichtbare Kanten(TC_020513_DIN)
100
AcDbLine
 10
209.6133927033578
 20
135.7665389042295
 30
0.0
 11
199.6879480236946
 21
135.7665389042295
 31
0.0
  0
LINE
  5
634
330
37
100
AcDbEntity
  8
Sichtbare Kanten(TC_020513_DIN)
100
AcDbLine
 10
238.1879480236964
 20
86.76653890422954
 30
0.0
 11
238.1879480236964
 21
126.7665389042295
 31
0.0
  0
LINE
  5
635
330
37
100
AcDbEntity
  8
Sichtbare Kanten(TC_020513_DIN)
100
AcDbLine
 10
238.1879480236964
 20
133.7665389042295
 30
0.0
 11
238.1879480236964
 21
135.7665389042295
 31
0.0
  0
LINE
  5
636
330
37
100
AcDbEntity
  8
Sichtbare Kanten(TC_020513_DIN)
100
AcDbLine
 10
232.1879480236946
 20
135.7665389042295
 30
0.0
 11
238.1879480236964
 21
135.7665389042295
 31
0.0
  0
LINE
  5
637
330
37
100
AcDbEntity
  8
Sichtbare Kanten(TC_020513_DIN)
100
AcDbLine
 10
247.1268369125843
 20
120.5499016016388
 30
0.0
 11
250.2379480236973
 21
120.5499016016388
 31
0.0
  0
LINE
  5
638
330
37
100
AcDbEntity
  8
Sichtbare Kanten(TC_020513_DIN)
100
AcDbLine
 10
247.1268369125843
 20
120.5499016016388
 30
0.0
 11
246.7379480236952
 21
120.5499016016388
 31
0.0
  0
LINE
  5
639
330
37
100
AcDbEntity
  8
Sichtbare Kanten(TC_020513_DIN)
100
AcDbLine
 10
239.737948023697
 20
120.5499016016388
 30
0.0
 11
239.7002931086895
 21
120.5499016016388
 31
0.0
  0
LINE
  5
63A
330
37
100
AcDbEntity
  8
Sichtbare Kanten(TC_020513_DIN)
100
AcDbLine
 10
250.2379480236973
 20
120.5499016016388
 30
0.0
 11
250.2379480236973
 21
121.9499016016388
 31
0.0
  0
LINE
  5
63B
330
37
100
AcDbEntity
  8
Sichtbare Kanten(TC_020513_DIN)
100
AcDbLine
 10
239.6002931086895
 20
119.6122466866314
 30
0.0
 11
238.2002931086895
 21
119.6122466866314
 31
0.0
  0
LINE
  5
63C
330
37
100
AcDbEntity
  8
Sichtbare Kanten(TC_020513_DIN)
100
AcDbLine
 10
238.2002931086895
 20
120.4499016016388
 30
0.0
 11
238.2002931086895
 21
119.6122466866314
 31
0.0
  0
LINE
  5
63D
330
37
100
AcDbEntity
  8
Sichtbare Kanten(TC_020513_DIN)
100
AcDbLine
 10
239.6002931086895
 20
120.4499016016388
 30
0.0
 11
239.6002931086895
 21
119.6122466866314
 31
0.0
  0
LINE
  5
63E
330
37
100
AcDbEntity
  8
Sichtbare Kanten(TC_020513_DIN)
100
AcDbLine
 10
239.737948023697
 20
121.9499016016388
 30
0.0
 11
239.7002931086895
 21
121.9499016016388
 31
0.0
  0
LINE
  5
63F
330
37
100
AcDbEntity
  8
Sichtbare Kanten(TC_020513_DIN)
100
AcDbLine
 10
247.1268369125843
 20
121.9499016016388
 30
0.0
 11
246.7379480236952
 21
121.9499016016388
 31
0.0
  0
LINE
  5
640
330
37
100
AcDbEntity
  8
Sichtbare Kanten(TC_020513_DIN)
100
AcDbLine
 10
247.1268369125843
 20
121.9499016016388
 30
0.0
 11
250.2379480236973
 21
121.9499016016388
 31
0.0
  0
CIRCLE
  5
641
330
37
100
AcDbEntity
  8
Sichtbare Kanten(TC_020513_DIN)
100
AcDbCircle
 10
212.9379480236932
 20
121.7665389042295
 30
0.0
 40
1.75
  0
LINE
  5
642
330
37
100
AcDbEntity
  8
Sichtbare Kanten(TC_020513_DIN)
100
AcDbLine
 10
246.7379480236932
 20
123.3499016016388
 30
0.0
 11
246.7379480236932
 21
125.7665389042295
 31
0.0
  0
ARC
  5
643
330
37
100
AcDbEntity
  8
Sichtbare Kanten(TC_020513_DIN)
100
AcDbCircle
 10
238.7379480236932
 20
125.7665389042295
 30
0.0
 40
7.999999999999998
100
AcDbArc
 50
0.0
 51
90.0
  0
LINE
  5
644
330
37
100
AcDbEntity
  8
Sichtbare Kanten(TC_020513_DIN)
100
AcDbLine
 10
238.7379480236932
 20
133.7665389042295
 30
0.0
 11
225.9379480236932
 21
133.7665389042295
 31
0.0
  0
ARC
  5
645
330
37
100
AcDbEntity
  8
Sichtbare Kanten(TC_020513_DIN)
100
AcDbCircle
 10
225.9379480236932
 20
134.2665389042295
 30
0.0
 40
0.4999999999999974
100
AcDbArc
 50
220.0290181764505
 51
270.0
  0
ARC
  5
646
330
37
100
AcDbEntity
  8
Sichtbare Kanten(TC_020513_DIN)
100
AcDbCircle
 10
210.2407126867617
 20
121.08144115044
 30
0.0
 40
19.99999999999997
100
AcDbArc
 50
40.02901817645286
 51
64.00779443620876
  0
ARC
  5
647
330
37
100
AcDbEntity
  8
Sichtbare Kanten(TC_020513_DIN)
100
AcDbCircle
 10
215.9379480236932
 20
132.7665389042295
 30
0.0
 40
7.000000000000001
100
AcDbArc
 50
64.00779443620884
 51
180.0
  0
LINE
  5
648
330
37
100
AcDbEntity
  8
Sichtbare Kanten(TC_020513_DIN)
100
AcDbLine
 10
208.9379480236932
 20
132.7665389042295
 30
0.0
 11
208.9379480236932
 21
119.2665389042295
 31
0.0
  0
ARC
  5
649
330
37
100
AcDbEntity
  8
Sichtbare Kanten(TC_020513_DIN)
100
AcDbCircle
 10
209.4379480236932
 20
119.2665389042295
 30
0.0
 40
0.4999999999999983
100
AcDbArc
 50
180.0
 51
251.6923269007138
  0
ARC
  5
64A
330
37
100
AcDbEntity
  8
Sichtbare Kanten(TC_020513_DIN)
100
AcDbCircle
 10
213.992682238409
 20
133.0325984796235
 30
0.0
 40
15.0
100
AcDbArc
 50
251.6923269007129
 51
334.1179484035667
  0
ARC
  5
64B
330
37
100
AcDbEntity
  8
Sichtbare Kanten(TC_020513_DIN)
100
AcDbCircle
 10
227.9379480236932
 20
126.2665389042295
 30
0.0
 40
0.4999999999999952
100
AcDbArc
 50
90.0
 51
154.1179484035691
  0
LINE
  5
64C
330
37
100
AcDbEntity
  8
Sichtbare Kanten(TC_020513_DIN)
100
AcDbLine
 10
227.9379480236932
 20
126.7665389042295
 30
0.0
 11
238.7379480236932
 21
126.7665389042295
 31
0.0
  0
ARC
  5
64D
330
37
100
AcDbEntity
  8
Sichtbare Kanten(TC_020513_DIN)
100
AcDbCircle
 10
238.7379480236932
 20
125.7665389042295
 30
0.0
 40
1.000000000000003
100
AcDbArc
 50
0.0
 51
90.0
  0
LINE
  5
64E
330
37
100
AcDbEntity
  8
Sichtbare Kanten(TC_020513_DIN)
100
AcDbLine
 10
239.7379480236932
 20
125.7665389042295
 30
0.0
 11
239.7379480236932
 21
123.3499016016388
 31
0.0
  0
LINE
  5
64F
330
37
100
AcDbEntity
  8
Sichtbare Kanten(TC_020513_DIN)
100
AcDbLine
 10
246.737948023694
 20
120.5499016016388
 30
0.0
 11
239.7379480236941
 21
120.5499016016388
 31
0.0
  0
LINE
  5
650
330
37
100
AcDbEntity
  8
Sichtbare Kanten(TC_020513_DIN)
100
AcDbLine
 10
239.7379480236941
 20
120.5499016016388
 30
0.0
 11
239.7379480236932
 21
123.3499016016388
 31
0.0
  0
LINE
  5
651
330
37
100
AcDbEntity
  8
Sichtbare Kanten(TC_020513_DIN)
100
AcDbLine
 10
246.7379480236932
 20
123.3499016016388
 30
0.0
 11
246.7379480236941
 21
120.5499016016388
 31
0.0
  0
ARC
  5
652
330
37
100
AcDbEntity
  8
Sichtbare Kanten(TC_020513_DIN)
100
AcDbCircle
 10
239.7002931086894
 20
120.4499016016388
 30
0.0
 40
0.0999999999999912
100
AcDbArc
 50
90.0
 51
180.0
  0
ARC
  5
653
330
37
100
AcDbEntity
  8
Sichtbare Kanten(TC_020513_DIN)
100
AcDbCircle
 10
239.7002931086895
 20
120.4499016016388
 30
0.0
 40
1.500000000000003
100
AcDbArc
 50
90.0
 51
180.0
  0
ARC
  5
654
330
37
100
AcDbEntity
  8
Gewinde(TC_020513_DIN)
100
AcDbCircle
 10
215.9379480236911
 20
99.34653890422953
 30
0.0
 40
11.74200000000003
100
AcDbArc
 50
280.0000000000492
 51
189.999999999998
  0
ARC
  5
655
330
37
100
AcDbEntity
  8
Stich 1-Linien(TC_020513_DIN)
 48
27.86664199829102
100
AcDbCircle
 10
212.9379480236932
 20
121.7665389042295
 30
0.0
 40
48.93394997172079
100
AcDbArc
 50
0.0
 51
53.95447404463329
  0
DIMENSION
  5
656
330
37
100
AcDbEntity
  8
Bemaßungen(TC_020513_DIN)
  6
Continuous
 62
     7
370
    25
100
AcDbDimension
  2
*D11
 10
41.07940288575053
 20
87.60453890422951
 30
0.0
 11
41.07940288575052
 21
99.34653890422953
 31
0.0
 70
   160
  1
 PG16
 42
23.48400000000005
  3
STANDARD-TC_020513_DIN
100
AcDbAlignedDimension
 13
51.07940288575052
 23
111.0885389042295
 33
0.0
 14
51.07940288575052
 24
87.60453890422951
 34
0.0
 50
90.0
100
AcDbRotatedDimension
1001
ACAD
1000
DSTYLE
1002
{
1070
   271
1070
     2
1070
   272
1070
     2
1070
    48
1040
0.0
1070
    47
1040
0.0
1002
}
  0
DIMENSION
  5
71C
330
37
100
AcDbEntity
  8
Bemaßungen(TC_020513_DIN)
  6
Continuous
 62
     7
370
    25
100
AcDbDimension
  2
*D12
 10
155.7437396303697
 20
87.60453890422953
 30
0.0
 11
155.7437396303697
 21
99.34653890422953
 31
0.0
 70
   160
  1
 PG16
 42
23.48400000000002
  3
STANDARD-TC_020513_DIN
100
AcDbAlignedDimension
 13
144.5794028857505
 23
111.0885389042295
 33
0.0
 14
144.5794028857505
 24
87.60453890422953
 34
0.0
 50
90.0
100
AcDbRotatedDimension
1001
ACAD
1000
DSTYLE
1002
{
1070
   271
1070
     2
1070
   272
1070
     2
1070
    48
1040
0.0
1070
    47
1040
0.0
1002
}
  0
LINE
  5
7E1
330
37
100
AcDbEntity
  8
Mittellinie(TC_020513_DIN)
  6
CHAIN
 48
4.999627590179443
100
AcDbLine
 10
56.8294028857505
 20
80.26653890422954
 30
0.0
 11
56.8294028857505
 21
89.26653890422954
 31
0.0
  0
LINE
  5
7E2
330
37
100
AcDbEntity
  8
Mittellinie(TC_020513_DIN)
  6
CHAIN
 48
11.99379158020019
100
AcDbLine
 10
48.57940288575052
 20
99.34653890422953
 30
0.0
 11
66.57940288575051
 21
99.34653890422953
 31
0.0
  0
LINE
  5
7E3
330
37
100
AcDbEntity
  8
Mittellinie(TC_020513_DIN)
  6
CHAIN
 48
4.999627590179443
100
AcDbLine
 10
138.8294028857505
 20
80.26653890422954
 30
0.0
 11
138.8294028857505
 21
89.26653890422954
 31
0.0
  0
LINE
  5
7E4
330
37
100
AcDbEntity
  8
Mittellinie(TC_020513_DIN)
  6
CHAIN
 48
11.99379158020019
100
AcDbLine
 10
129.0794028857505
 20
99.34653890422953
 30
0.0
 11
147.0794028857505
 21
99.34653890422953
 31
0.0
  0
LINE
  5
7E5
330
37
100
AcDbEntity
  8
Mittellinie(TC_020513_DIN)
  6
CHAIN
 48
4.588539123535156
100
AcDbLine
 10
130.4194028857505
 20
132.7665389042295
 30
0.0
 11
138.6794028857505
 21
132.7665389042295
 31
0.0
  0
LINE
  5
7E6
330
37
100
AcDbEntity
  8
Mittellinie(TC_020513_DIN)
  6
CHAIN
 48
3.110841751098632
100
AcDbLine
 10
135.0794028857505
 20
132.7665389042295
 30
0.0
 11
140.6794028857505
 21
132.7665389042295
 31
0.0
  0
LINE
  5
7E7
330
37
100
AcDbEntity
  8
Mittellinie(TC_020513_DIN)
  6
CHAIN
 48
4.588539123535156
100
AcDbLine
 10
56.9794028857505
 20
132.7665389042295
 30
0.0
 11
65.23940288575051
 21
132.7665389042295
 31
0.0
  0
LINE
  5
7E8
330
37
100
AcDbEntity
  8
Mittellinie(TC_020513_DIN)
  6
CHAIN
 48
3.110841751098632
100
AcDbLine
 10
54.97940288575051
 20
132.7665389042295
 30
0.0
 11
60.5794028857505
 21
132.7665389042295
 31
0.0
  0
LINE
  5
7E9
330
37
100
AcDbEntity
  8
Mittellinie(TC_020513_DIN)
  6
CHAIN
 48
11.99379158020019
100
AcDbLine
 10
97.82940288575051
 20
84.26653890422954
 30
0.0
 11
97.82940288575051
 21
138.2665389042295
 31
0.0
  0
LINE
  5
7EA
330
37
100
AcDbEntity
  8
Mittellinie(TC_020513_DIN)
  6
CHAIN
 48
4.999627590179443
100
AcDbLine
 10
195.9379480236928
 20
80.26653890422954
 30
0.0
 11
195.9379480236928
 21
89.26653890422954
 31
0.0
  0
LINE
  5
7EB
330
37
100
AcDbEntity
  8
Mittellinie(TC_020513_DIN)
  6
CHAIN
 48
4.999627590179443
100
AcDbLine
 10
235.9379480236928
 20
80.26653890422954
 30
0.0
 11
235.9379480236928
 21
89.26653890422954
 31
0.0
  0
LINE
  5
7EC
330
37
100
AcDbEntity
  8
Mittelpunktmarkierung(TC_020513_DIN)
  6
CHAIN
 48
11.99379158020019
100
AcDbLine
 10
230.1799480236912
 20
99.34653890422953
 30
0.0
 11
201.6959480236911
 21
99.34653890422953
 31
0.0
  0
LINE
  5
7ED
330
37
100
AcDbEntity
  8
Mittelpunktmarkierung(TC_020513_DIN)
  6
CHAIN
 48
11.99379158020019
100
AcDbLine
 10
215.9379480236911
 20
113.5885389042295
 30
0.0
 11
215.9379480236911
 21
85.10453890422951
 31
0.0
  0
LINE
  5
7EE
330
37
100
AcDbEntity
  8
Mittelpunktmarkierung(TC_020513_DIN)
  6
CHAIN
 48
4.721865177154541
100
AcDbLine
 10
217.1879480236933
 20
121.7665389042295
 30
0.0
 11
208.6879480236932
 21
121.7665389042295
 31
0.0
  0
LINE
  5
7EF
330
37
100
AcDbEntity
  8
Mittelpunktmarkierung(TC_020513_DIN)
  6
CHAIN
 48
4.721865177154541
100
AcDbLine
 10
212.9379480236932
 20
126.0165389042295
 30
0.0
 11
212.9379480236932
 21
117.5165389042295
 31
0.0
  0
LINE
  5
7F0
330
37
100
AcDbEntity
  8
Mittelpunktmarkierung(TC_020513_DIN)
  6
CHAIN
 48
11.99379158020019
100
AcDbLine
 10
223.1379480236928
 20
132.7665389042295
 30
0.0
 11
208.7379480236929
 21
132.7665389042295
 31
0.0
  0
LINE
  5
7F1
330
37
100
AcDbEntity
  8
Mittelpunktmarkierung(TC_020513_DIN)
  6
CHAIN
 48
11.99379158020019
100
AcDbLine
 10
215.9379480236928
 20
139.9665389042295
 30
0.0
 11
215.9379480236928
 21
125.5665389042295
 31
0.0
  0
DIMENSION
  5
7F2
330
37
100
AcDbEntity
  8
Bemaßungen(TC_020513_DIN)
  6
Continuous
 62
     7
370
    25
100
AcDbDimension
  2
*D13
 10
189.9379480236911
 20
167.7665389042295
 30
0.0
 11
225.9049230095525
 21
167.7665389042295
 31
0.0
 70
   160
  1
<>
 42
71.93394997172285
  3
STANDARD-TC_020513_DIN
100
AcDbAlignedDimension
 13
261.871897995414
 23
121.7665389042295
 33
0.0
 14
189.9379480236911
 24
84.76653890422955
 34
0.0
 50
180.0
100
AcDbRotatedDimension
1001
ACAD
1000
DSTYLE
1002
{
1070
   271
1070
     0
1070
   272
1070
     2
1070
    48
1040
0.0
1070
    47
1040
0.0
1002
}
  0
DIMENSION
  5
8B2
330
37
100
AcDbEntity
  8
Bemaßungen(TC_020513_DIN)
  6
Continuous
 62
     7
370
    25
100
AcDbDimension
  2
*D14
 10
139.5794028857505
 20
167.7665389042295
 30
0.0
 11
97.82940288575051
 21
167.7665389042295
 31
0.0
 70
   160
  1
<>
 42
83.50000000000003
  3
STANDARD-TC_020513_DIN
100
AcDbAlignedDimension
 13
56.07940288575051
 23
136.7665389042295
 33
0.0
 14
139.5794028857505
 24
136.7665389042295
 34
0.0
 50
180.0
100
AcDbRotatedDimension
1001
ACAD
1000
DSTYLE
1002
{
1070
   271
1070
     2
1070
   272
1070
     2
1070
    48
1040
0.0
1070
    47
1040
0.0
1002
}
  0
DIMENSION
  5
972
330
37
100
AcDbEntity
  8
Bemaßungen(TC_020513_DIN)
  6
Continuous
 62
     7
370
    25
100
AcDbDimension
  2
*D15
 10
138.8294028857505
 20
70.26653890422955
 30
0.0
 11
97.82940288575051
 21
70.26653890422955
 31
0.0
 70
   160
  1
<>
 42
82.00000000000002
  3
STANDARD-TC_020513_DIN
100
AcDbAlignedDimension
 13
56.8294028857505
 23
80.26653890422954
 33
0.0
 14
138.8294028857505
 24
80.26653890422954
 34
0.0
 50
180.0
100
AcDbRotatedDimension
1001
ACAD
1000
DSTYLE
1002
{
1070
   271
1070
     2
1070
   272
1070
     2
1070
    48
1040
0.0
1070
    47
1040
0.0
1002
}
  0
DIMENSION
  5
A2D
330
37
100
AcDbEntity
  8
Bemaßungen(TC_020513_DIN)
  6
Continuous
 62
     7
370
    25
100
AcDbDimension
  2
*D16
 10
144.5794028857505
 20
62.76653890422956
 30
0.0
 11
97.82940288575051
 21
62.76653890422956
 31
0.0
 70
   160
  1
<>
 42
93.50000000000003
  3
STANDARD-TC_020513_DIN
100
AcDbAlignedDimension
 13
51.07940288575052
 23
84.76653890422955
 33
0.0
 14
144.5794028857505
 24
84.76653890422955
 34
0.0
 50
180.0
100
AcDbRotatedDimension
1001
ACAD
1000
DSTYLE
1002
{
1070
   271
1070
     2
1070
   272
1070
     2
1070
    48
1040
0.0
1070
    47
1040
0.0
1002
}
  0
DIMENSION
  5
AED
330
37
100
AcDbEntity
  8
Bemaßungen(TC_020513_DIN)
  6
Continuous
 62
     7
370
    25
100
AcDbDimension
  2
*D17
 10
235.9379480236928
 20
70.26653890422955
 30
0.0
 11
215.9379480236928
 21
70.26653890422955
 31
0.0
 70
   160
  1
<>
 42
40.0
  3
STANDARD-TC_020513_DIN
100
AcDbAlignedDimension
 13
195.9379480236928
 23
80.26653890422954
 33
0.0
 14
235.9379480236928
 24
80.26653890422954
 34
0.0
 50
180.0
100
AcDbRotatedDimension
1001
ACAD
1000
DSTYLE
1002
{
1070
   271
1070
     2
1070
   272
1070
     2
1070
    48
1040
0.0
1070
    47
1040
0.0
1002
}
  0
DIMENSION
  5
BB2
330
37
100
AcDbEntity
  8
Bemaßungen(TC_020513_DIN)
  6
Continuous
 62
     7
370
    25
100
AcDbDimension
  2
*D18
 10
241.9379480236911
 20
62.76653890422956
 30
0.0
 11
215.9379480236911
 21
62.76653890422956
 31
0.0
 70
   160
  1
<>
 42
52.0
  3
STANDARD-TC_020513_DIN
100
AcDbAlignedDimension
 13
189.9379480236911
 23
84.76653890422955
 33
0.0
 14
241.9379480236911
 24
84.76653890422955
 34
0.0
 50
180.0
100
AcDbRotatedDimension
1001
ACAD
1000
DSTYLE
1002
{
1070
   271
1070
     2
1070
   272
1070
     2
1070
    48
1040
0.0
1070
    47
1040
0.0
1002
}
  0
DIMENSION
  5
C77
330
37
100
AcDbEntity
  8
Bemaßungen(TC_020513_DIN)
  6
Continuous
 62
     7
370
    25
100
AcDbDimension
  2
*D19
 10
29.07940288575055
 20
157.7665389042295
 30
0.0
 11
29.07940288575052
 21
120.2665389042295
 31
0.0
 70
   160
  1
<>
 42
74.99999999999999
  3
STANDARD-TC_020513_DIN
100
AcDbAlignedDimension
 13
51.07940288575052
 23
82.76653890422954
 33
0.0
 14
60.07940288575053
 24
157.7665389042295
 34
0.0
 50
90.0
100
AcDbRotatedDimension
1001
ACAD
1000
DSTYLE
1002
{
1070
   271
1070
     2
1070
   272
1070
     2
1070
    48
1040
0.0
1070
    47
1040
0.0
1002
}
  0
DIMENSION
  5
D37
330
37
100
AcDbEntity
  8
Bemaßungen(TC_020513_DIN)
  6
Continuous
 62
     7
370
    25
100
AcDbDimension
  2
*D20
 10
275.0879480236956
 20
82.76653890422954
 30
0.0
 11
275.0879480236956
 21
111.2665389042295
 31
0.0
 70
   160
  1
<>
 42
57.0
  3
STANDARD-TC_020513_DIN
100
AcDbAlignedDimension
 13
235.0879480236955
 23
139.7665389042295
 33
0.0
 14
241.9379480236911
 24
82.76653890422954
 34
0.0
 50
90.0
100
AcDbRotatedDimension
1001
ACAD
1000
DSTYLE
1002
{
1070
   271
1070
     2
1070
   272
1070
     2
1070
    48
1040
0.0
1070
    47
1040
0.0
1002
}
  0
DIMENSION
  5
DFC
330
37
100
AcDbEntity
  8
Bemaßungen(TC_020513_DIN)
  6
Continuous
 62
     7
370
    25
100
AcDbDimension
  2
*D21
 10
263.9379480236911
 20
82.76653890422954
 30
0.0
 11
263.9379480236911
 21
84.76653890422959
 31
0.0
 70
   160
  1
<>
 42
4.0
  3
STANDARD-TC_020513_DIN
100
AcDbAlignedDimension
 13
241.9379480236911
 23
86.76653890422954
 33
0.0
 14
241.9379480236911
 24
82.76653890422954
 34
0.0
 50
90.0
100
AcDbRotatedDimension
1001
ACAD
1000
DSTYLE
1002
{
1070
   271
1070
     2
1070
   272
1070
     2
1070
    48
1040
0.0
1070
    47
1040
0.0
1002
}
  0
MTEXT
  5
ED9
102
{ACAD_REACTORS
330
EDB
102
}
330
37
100
AcDbEntity
  8
Symbole(TC_020513_DIN)
 62
     7
100
AcDbMText
 10
251.1992819675354
 20
70.67825844204389
 30
0.0
 40
3.499999940395355
 41
13.43258693814277
 71
     1
 72
     1
  1
{ \fAIGDT|b0|i0;\H3.5000;n\fArial|b0|i0;\H3.5000; 5,5}
  7
Aktuell-BSI
 73
     1
 44
1.0
1001
ACAD
1000
MTEXTBEGIN
1070
    73
1070
     1
1070
    44
1040
1.0
1070
    74
1070
     0
1000
MTEXTEND
  0
LEADER
  5
EDB
330
37
100
AcDbEntity
  8
Symbole(TC_020513_DIN)
  6
Continuous
 62
     7
370
    25
100
AcDbLeader
  3
STANDARD-TC_020513_DIN$7
 73
     0
 40
4.192360163710777
 41
12.03751703007159
 76
     3
 10
235.9379480236928
 20
82.76653890422954
 30
0.0
 10
248.6992819675354
 20
68.92825847184622
 30
0.0
 10
250.3992819675354
 20
68.92825847184622
 30
0.0
340
ED9
210
0.0
220
0.0
230
-1.0
213
0.0
223
-1.749999970197677
233
0.0
1001
ACAD
1000
DSTYLE
1002
{
1070
    77
1070
     0
1002
}
  0
ENDSEC
  0
SECTION
  2
OBJECTS
  0
DICTIONARY
  5
C
330
0
100
AcDbDictionary
281
     1
  3
ACAD_COLOR
350
30
  3
ACAD_GROUP
350
D
  3
ACAD_LAYOUT
350
2F
  3
ACAD_MATERIAL
350
10
  3
ACAD_MLINESTYLE
350
2C
  3
ACAD_PLOTSETTINGS
350
2E
  3
ACAD_PLOTSTYLENAME
350
E
  3
ACAD_TABLESTYLE
350
31
  3
ACAD_VISUALSTYLE
350
14
  3
AcDbVariableDictionary
350
EDC
  3
DWGPROPS
350
EE2
  0
DICTIONARY
  5
EF1
330
FC
100
AcDbDictionary
280
     1
281
     1
  3
ACAD_MTEXT_RT
360
EF2
  0
DICTIONARY
  5
EF3
330
10C
100
AcDbDictionary
280
     1
281
     1
  3
ACAD_MTEXT_RT
360
EF4
  0
DICTIONARY
  5
EF5
330
12D
100
AcDbDictionary
280
     1
281
     1
  3
ACAD_MTEXT_RT
360
EF6
  0
DICTIONARY
  5
30
102
{ACAD_REACTORS
330
C
102
}
330
C
100
AcDbDictionary
281
     1
  0
DICTIONARY
  5
D
102
{ACAD_REACTORS
330
C
102
}
330
C
100
AcDbDictionary
281
     1
  0
DICTIONARY
  5
2F
102
{ACAD_REACTORS
330
C
102
}
330
C
100
AcDbDictionary
281
     1
  3
Layout1
350
36
  3
Layout2
350
3E
  3
Model
350
3A
  0
DICTIONARY
  5
10
102
{ACAD_REACTORS
330
C
102
}
330
C
100
AcDbDictionary
281
     1
  3
ByBlock
350
12
  3
ByLayer
350
11
  3
Global
350
13
  0
DICTIONARY
  5
2C
102
{ACAD_REACTORS
330
C
102
}
330
C
100
AcDbDictionary
281
     1
  3
Standard
350
2D
  0
DICTIONARY
  5
2E
102
{ACAD_REACTORS
330
C
102
}
330
C
100
AcDbDictionary
281
     1
  0
ACDBDICTIONARYWDFLT
  5
E
102
{ACAD_REACTORS
330
C
102
}
330
C
100
AcDbDictionary
281
     1
  3
Normal
350
F
100
AcDbDictionaryWithDefault
340
F
  0
DICTIONARY
  5
31
102
{ACAD_REACTORS
330
C
102
}
330
C
100
AcDbDictionary
281
     1
  3
Standard
350
32
  0
DICTIONARY
  5
14
102
{ACAD_REACTORS
330
C
102
}
330
C
100
AcDbDictionary
281
     1
  3
2dWireframe
350
1A
  3
3D Hidden
350
1C
  3
3dWireframe
350
1B
  3
Basic
350
19
  3
Brighten
350
20
  3
ColorChange
350
24
  3
Conceptual
350
1D
  3
Dim
350
1F
  3
Facepattern
350
23
  3
Flat
350
15
  3
FlatWithEdges
350
16
  3
Gouraud
350
17
  3
GouraudWithEdges
350
18
  3
Linepattern
350
22
  3
Realistic
350
1E
  3
Thicken
350
21
  0
DICTIONARY
  5
EDC
102
{ACAD_REACTORS
330
C
102
}
330
C
100
AcDbDictionary
281
     1
  3
CTABLESTYLE
350
EDD
  3
DIMASSOC
350
EE1
  3
HIDETEXT
350
EE0
  3
INDEXCTL
350
EDF
  3
SORTENTS
350
EDE
  0
XRECORD
  5
EE2
102
{ACAD_REACTORS
330
C
102
}
330
C
100
AcDbXrecord
280
     1
  1
DWGPROPS COOKIE
  2

  3

  4
Hodapp
  6

  7

  8

  9

300
Manager=
301
Firma=
302
Kategorie=
303
Bauteilnummer=CVP 10 L2
304
Bezeichnung=
305
Projekt=
306
Konstrukteur=Hodapp
307
Ingenieur=
308
Bevollmächtigter=
309
Kostenstelle=
 40
0.0000799421296296
 41
2454105.75494603
 42
2454105.75494603
  1

 90
       22
300
Zulieferer=
300
Benutzerstatus=
300
Konstruktionsstatus=InBearbeitung
300
Kontrolliert von=
300
Konstruktion genehmigt von=
300
Fertigung genehmigt von=
300
FirstViewScale:1=1:1
300
SaveDate=08/30/2006
300
SaveTime=14:09
300
PaperSize=A4
300
AllViewScales=1:1
300
FirstViewScale=1:1
  0
XRECORD
  5
EF2
102
{ACAD_REACTORS
330
EF1
102
}
330
EF1
100
AcDbXrecord
280
     1
 40
45260.0
  1
Für spanlose Bearbeitung
  0
XRECORD
  5
EF4
102
{ACAD_REACTORS
330
EF3
102
}
330
EF3
100
AcDbXrecord
280
     1
 40
49954.0
  1
Alle nicht bemaßten Radien R
  0
XRECORD
  5
EF6
102
{ACAD_REACTORS
330
EF5
102
}
330
EF5
100
AcDbXrecord
280
     1
 40
53914.0
  1
Werkstückkanten\Pnach ISO 13715
  0
LAYOUT
  5
36
102
{ACAD_XDICTIONARY
360
EEB
102
}
102
{ACAD_REACTORS
330
2F
102
}
330
2F
100
AcDbPlotSettings
  1

  2

  4

  6

 40
0.0
 41
0.0
 42
0.0
 43
0.0
 44
0.0
 45
0.0
 46
0.0
 47
0.0
 48
0.0
 49
0.0
140
0.0
141
0.0
142
1.0
143
1.0
 70
   688
 72
     0
 73
     0
 74
     5
  7

 75
    16
147
1.0
148
0.0
149
0.0
100
AcDbLayout
  1
Layout1
 70
     1
 71
     1
 10
0.0
 20
0.0
 11
12.0
 21
9.0
 12
0.0
 22
0.0
 32
0.0
 14
0.0
 24
0.0
 34
0.0
 15
0.0
 25
0.0
 35
0.0
146
0.0
 13
0.0
 23
0.0
 33
0.0
 16
1.0
 26
0.0
 36
0.0
 17
0.0
 27
1.0
 37
0.0
 76
     0
330
33
  0
LAYOUT
  5
3E
102
{ACAD_XDICTIONARY
360
EEF
102
}
102
{ACAD_REACTORS
330
2F
102
}
330
2F
100
AcDbPlotSettings
  1

  2

  4

  6

 40
0.0
 41
0.0
 42
0.0
 43
0.0
 44
0.0
 45
0.0
 46
0.0
 47
0.0
 48
0.0
 49
0.0
140
0.0
141
0.0
142
1.0
143
1.0
 70
   688
 72
     0
 73
     0
 74
     5
  7

 75
    16
147
1.0
148
0.0
149
0.0
100
AcDbLayout
  1
Layout2
 70
     1
 71
     2
 10
0.0
 20
0.0
 11
12.0
 21
9.0
 12
0.0
 22
0.0
 32
0.0
 14
0.0
 24
0.0
 34
0.0
 15
0.0
 25
0.0
 35
0.0
146
0.0
 13
0.0
 23
0.0
 33
0.0
 16
1.0
 26
0.0
 36
0.0
 17
0.0
 27
1.0
 37
0.0
 76
     0
330
3B
  0
LAYOUT
  5
3A
102
{ACAD_XDICTIONARY
360
EED
102
}
102
{ACAD_REACTORS
330
2F
102
}
330
2F
100
AcDbPlotSettings
  1

  2

  4

  6

 40
0.0
 41
0.0
 42
0.0
 43
0.0
 44
0.0
 45
0.0
 46
0.0
 47
0.0
 48
0.0
 49
0.0
140
0.0
141
0.0
142
1.0
143
1.0
 70
  1712
 72
     0
 73
     0
 74
     0
  7

 75
     0
147
1.0
148
0.0
149
0.0
100
AcDbLayout
  1
Model
 70
     1
 71
     0
 10
0.0
 20
0.0
 11
12.0
 21
9.0
 12
0.0
 22
0.0
 32
0.0
 14
0.0
 24
0.0
 34
0.0
 15
0.0
 25
0.0
 35
0.0
146
0.0
 13
0.0
 23
0.0
 33
0.0
 16
1.0
 26
0.0
 36
0.0
 17
0.0
 27
1.0
 37
0.0
 76
     0
330
37
  0
MATERIAL
  5
12
102
{ACAD_XDICTIONARY
360
EE5
102
}
102
{ACAD_REACTORS
330
10
102
}
330
10
100
AcDbMaterial
  1
ByBlock
  0
MATERIAL
  5
11
102
{ACAD_XDICTIONARY
360
EE3
102
}
102
{ACAD_REACTORS
330
10
102
}
330
10
100
AcDbMaterial
  1
ByLayer
  0
MATERIAL
  5
13
102
{ACAD_XDICTIONARY
360
EE7
102
}
102
{ACAD_REACTORS
330
10
102
}
330
10
100
AcDbMaterial
  1
Global
  0
MLINESTYLE
  5
2D
102
{ACAD_REACTORS
330
2C
102
}
330
2C
100
AcDbMlineStyle
  2
STANDARD
 70
     0
  3

 62
   256
 51
90.0
 52
90.0
 71
     2
 49
0.5
 62
   256
  6
BYLAYER
 49
-0.5
 62
   256
  6
BYLAYER
  0
ACDBPLACEHOLDER
  5
F
102
{ACAD_REACTORS
330
E
102
}
330
E
  0
TABLESTYLE
  5
32
102
{ACAD_XDICTIONARY
360
EE9
102
}
102
{ACAD_REACTORS
330
31
102
}
330
31
100
AcDbTableStyle
  3
Standard
 70
     0
 71
     0
 40
0.06
 41
0.06
280
     0
281
     0
  7
Standard
140
0.18
170
     2
 62
     0
 63
     7
283
     0
274
    -2
284
     1
 64
     0
275
    -2
285
     1
 65
     0
276
    -2
286
     1
 66
     0
277
    -2
287
     1
 67
     0
278
    -2
288
     1
 68
     0
279
    -2
289
     1
 69
     0
  7
Standard
140
0.25
170
     5
 62
     0
 63
     7
283
     0
274
    -2
284
     1
 64
     0
275
    -2
285
     1
 65
     0
276
    -2
286
     1
 66
     0
277
    -2
287
     1
 67
     0
278
    -2
288
     1
 68
     0
279
    -2
289
     1
 69
     0
  7
Standard
140
0.18
170
     5
 62
     0
 63
     7
283
     0
274
    -2
284
     1
 64
     0
275
    -2
285
     1
 65
     0
276
    -2
286
     1
 66
     0
277
    -2
287
     1
 67
     0
278
    -2
288
     1
 68
     0
279
    -2
289
     1
 69
     0
  0
VISUALSTYLE
  5
1A
102
{ACAD_REACTORS
330
14
102
}
330
14
100
AcDbVisualStyle
  2
2dWireframe
 70
     4
 71
     0
 72
     2
 73
     0
 90
        0
 40
-0.6
 41
-30.0
 62
     5
 63
     7
 74
     1
 91
        4
 64
     7
 65
   257
 75
     1
175
     1
 42
1.0
 92
        0
 66
   257
 43
1.0
 76
     1
 77
     6
 78
     2
 67
     7
 79
     5
170
     0
171
     0
290
     0
174
     0
 93
        1
 44
0.0
173
     0
291
     0
 45
0.0
1001
ACAD
1000
AcDbSavedByObjectVersion
1070
     0
  0
VISUALSTYLE
  5
1C
102
{ACAD_REACTORS
330
14
102
}
330
14
100
AcDbVisualStyle
  2
3D Hidden
 70
     6
 71
     1
 72
     2
 73
     2
 90
        0
 40
-0.6
 41
-30.0
 62
     5
 63
     7
 74
     2
 91
        2
 64
     7
 65
   257
 75
     2
175
     1
 42
40.0
 92
        0
 66
   257
 43
1.0
 76
     1
 77
     6
 78
     2
 67
     7
 79
     3
170
     0
171
     0
290
     0
174
     0
 93
        1
 44
0.0
173
     0
291
     0
 45
0.0
1001
ACAD
1000
AcDbSavedByObjectVersion
1070
     0
  0
VISUALSTYLE
  5
1B
102
{ACAD_REACTORS
330
14
102
}
330
14
100
AcDbVisualStyle
  2
3dWireframe
 70
     5
 71
     0
 72
     2
 73
     0
 90
        0
 40
-0.6
 41
-30.0
 62
     5
 63
     7
 74
     1
 91
        4
 64
     7
 65
   257
 75
     1
175
     1
 42
1.0
 92
        0
 66
   257
 43
1.0
 76
     1
 77
     6
 78
     2
 67
     7
 79
     5
170
     0
171
     0
290
     0
174
     0
 93
        1
 44
0.0
173
     0
291
     0
 45
0.0
1001
ACAD
1000
AcDbSavedByObjectVersion
1070
     0
  0
VISUALSTYLE
  5
19
102
{ACAD_REACTORS
330
14
102
}
330
14
100
AcDbVisualStyle
  2
Basic
 70
     7
 71
     1
 72
     0
 73
     1
 90
        0
 40
-0.6
 41
-30.0
 62
     5
 63
     7
 74
     0
 91
        4
 64
     7
 65
   257
 75
     1
175
     1
 42
1.0
 92
        8
 66
     7
 43
1.0
 76
     1
 77
     6
 78
     2
 67
     7
 79
     5
170
     0
171
     0
290
     0
174
     0
 93
        1
 44
0.0
173
     0
291
     1
 45
0.0
1001
ACAD
1000
AcDbSavedByObjectVersion
1070
     0
  0
VISUALSTYLE
  5
20
102
{ACAD_REACTORS
330
14
102
}
330
14
100
AcDbVisualStyle
  2
Brighten
 70
    12
 71
     2
 72
     2
 73
     0
 90
        0
 40
-0.6
 41
-30.0
 62
     5
 63
     7
 74
     1
 91
        4
 64
     7
 65
   257
 75
     1
175
     1
 42
1.0
 92
        8
 66
     7
 43
1.0
 76
     1
 77
     6
 78
     2
 67
     7
 79
     5
170
     0
171
     0
290
     0
174
     0
 93
        1
 44
50.0
173
     0
291
     1
 45
0.0
1001
ACAD
1000
AcDbSavedByObjectVersion
1070
     0
  0
VISUALSTYLE
  5
24
102
{ACAD_REACTORS
330
14
102
}
330
14
100
AcDbVisualStyle
  2
ColorChange
 70
    16
 71
     2
 72
     2
 73
     3
 90
        0
 40
-0.6
 41
-30.0
 62
     5
 63
     8
 74
     1
 91
        4
 64
     7
 65
   257
 75
     1
175
     1
 42
1.0
 92
        8
 66
     8
 43
1.0
 76
     1
 77
     6
 78
     2
 67
     7
 79
     5
170
     0
171
     0
290
     0
174
     0
 93
        1
 44
0.0
173
     0
291
     1
 45
0.0
1001
ACAD
1000
AcDbSavedByObjectVersion
1070
     0
  0
VISUALSTYLE
  5
1D
102
{ACAD_REACTORS
330
14
102
}
330
14
100
AcDbVisualStyle
  2
Conceptual
 70
     9
 71
     3
 72
     2
 73
     0
 90
        0
 40
-0.6
 41
-30.0
 62
     5
 63
     7
 74
     2
 91
        2
 64
     7
 65
   257
 75
     1
175
     1
 42
40.0
 92
        8
 66
     7
 43
1.0
 76
     1
 77
     6
 78
     2
 67
     7
 79
     3
170
     0
171
     0
290
     0
174
     0
 93
        1
 44
0.0
173
     0
291
     0
 45
0.0
1001
ACAD
1000
AcDbSavedByObjectVersion
1070
     0
  0
VISUALSTYLE
  5
1F
102
{ACAD_REACTORS
330
14
102
}
330
14
100
AcDbVisualStyle
  2
Dim
 70
    11
 71
     2
 72
     2
 73
     0
 90
        0
 40
-0.6
 41
-30.0
 62
     5
 63
     7
 74
     1
 91
        4
 64
     7
 65
   257
 75
     1
175
     1
 42
1.0
 92
        8
 66
     7
 43
1.0
 76
     1
 77
     6
 78
     2
 67
     7
 79
     5
170
     0
171
     0
290
     0
174
     0
 93
        1
 44
-50.0
173
     0
291
     1
 45
0.0
1001
ACAD
1000
AcDbSavedByObjectVersion
1070
     0
  0
VISUALSTYLE
  5
23
102
{ACAD_REACTORS
330
14
102
}
330
14
100
AcDbVisualStyle
  2
Facepattern
 70
    15
 71
     2
 72
     2
 73
     0
 90
        0
 40
-0.6
 41
-30.0
 62
     5
 63
     7
 74
     1
 91
        4
 64
     7
 65
   257
 75
     1
175
     1
 42
1.0
 92
        8
 66
     7
 43
1.0
 76
     1
 77
     6
 78
     2
 67
     7
 79
     5
170
     0
171
     0
290
     0
174
     0
 93
        1
 44
0.0
173
     0
291
     1
 45
0.0
1001
ACAD
1000
AcDbSavedByObjectVersion
1070
     0
  0
VISUALSTYLE
  5
15
102
{ACAD_REACTORS
330
14
102
}
330
14
100
AcDbVisualStyle
  2
Flat
 70
     0
 71
     2
 72
     1
 73
     1
 90
        2
 40
-0.6
 41
30.0
 62
     5
 63
     7
 74
     0
 91
        4
 64
     7
 65
   257
 75
     1
175
     1
 42
1.0
 92
        8
 66
     7
 43
1.0
 76
     1
 77
     6
 78
     2
 67
     7
 79
     5
170
     0
171
     0
290
     0
174
     0
 93
       13
 44
0.0
173
     0
291
     1
 45
0.0
1001
ACAD
1000
AcDbSavedByObjectVersion
1070
     0
  0
VISUALSTYLE
  5
16
102
{ACAD_REACTORS
330
14
102
}
330
14
100
AcDbVisualStyle
  2
FlatWithEdges
 70
     1
 71
     2
 72
     1
 73
     1
 90
        2
 40
-0.6
 41
30.0
 62
     5
 63
     7
 74
     1
 91
        4
 64
     7
 65
   257
 75
     1
175
     1
 42
1.0
 92
        0
 66
   257
 43
1.0
 76
     1
 77
     6
 78
     2
 67
     7
 79
     5
170
     0
171
     0
290
     0
174
     0
 93
       13
 44
0.0
173
     0
291
     1
 45
0.0
1001
ACAD
1000
AcDbSavedByObjectVersion
1070
     0
  0
VISUALSTYLE
  5
17
102
{ACAD_REACTORS
330
14
102
}
330
14
100
AcDbVisualStyle
  2
Gouraud
 70
     2
 71
     2
 72
     2
 73
     1
 90
        2
 40
-0.6
 41
30.0
 62
     5
 63
     7
 74
     0
 91
        4
 64
     7
 65
   257
 75
     1
175
     1
 42
1.0
 92
        0
 66
     7
 43
1.0
 76
     1
 77
     6
 78
     2
 67
     7
 79
     5
170
     0
171
     0
290
     0
174
     0
 93
       13
 44
0.0
173
     0
291
     1
 45
0.0
1001
ACAD
1000
AcDbSavedByObjectVersion
1070
     0
  0
VISUALSTYLE
  5
18
102
{ACAD_REACTORS
330
14
102
}
330
14
100
AcDbVisualStyle
  2
GouraudWithEdges
 70
     3
 71
     2
 72
     2
 73
     1
 90
        2
 40
-0.6
 41
30.0
 62
     5
 63
     7
 74
     1
 91
        4
 64
     7
 65
   257
 75
     1
175
     1
 42
1.0
 92
        0
 66
   257
 43
1.0
 76
     1
 77
     6
 78
     2
 67
     7
 79
     5
170
     0
171
     0
290
     0
174
     0
 93
       13
 44
0.0
173
     0
291
     1
 45
0.0
1001
ACAD
1000
AcDbSavedByObjectVersion
1070
     0
  0
VISUALSTYLE
  5
22
102
{ACAD_REACTORS
330
14
102
}
330
14
100
AcDbVisualStyle
  2
Linepattern
 70
    14
 71
     2
 72
     2
 73
     0
 90
        0
 40
-0.6
 41
-30.0
 62
     5
 63
     7
 74
     1
 91
        4
 64
     7
 65
   257
 75
     7
175
     7
 42
1.0
 92
        8
 66
     7
 43
1.0
 76
     1
 77
     6
 78
     2
 67
     7
 79
     5
170
     0
171
     0
290
     0
174
     0
 93
        1
 44
0.0
173
     0
291
     1
 45
0.0
1001
ACAD
1000
AcDbSavedByObjectVersion
1070
     0
  0
VISUALSTYLE
  5
1E
102
{ACAD_REACTORS
330
14
102
}
330
14
100
AcDbVisualStyle
  2
Realistic
 70
     8
 71
     2
 72
     2
 73
     0
 90
        0
 40
-0.6
 41
-30.0
 62
     5
 63
     7
 74
     1
 91
        0
 64
     7
 65
   257
 75
     1
175
     1
 42
1.0
 92
        8
 66
     8
 43
1.0
 76
     1
 77
     6
 78
     2
 67
     7
 79
     5
170
     0
171
     0
290
     0
174
     0
 93
       13
 44
0.0
173
     0
291
     0
 45
0.0
1001
ACAD
1000
AcDbSavedByObjectVersion
1070
     0
  0
VISUALSTYLE
  5
21
102
{ACAD_REACTORS
330
14
102
}
330
14
100
AcDbVisualStyle
  2
Thicken
 70
    13
 71
     2
 72
     2
 73
     0
 90
        0
 40
-0.6
 41
-30.0
 62
     5
 63
     7
 74
     1
 91
        4
 64
     7
 65
   257
 75
     1
175
     1
 42
1.0
 92
       12
 66
     7
 43
1.0
 76
     1
 77
     6
 78
     2
 67
     7
 79
     5
170
     0
171
     0
290
     0
174
     0
 93
        1
 44
0.0
173
     0
291
     1
 45
0.0
1001
ACAD
1000
AcDbSavedByObjectVersion
1070
     0
  0
DICTIONARYVAR
  5
EDD
102
{ACAD_REACTORS
330
EDC
102
}
330
EDC
100
DictionaryVariables
280
     0
  1
STANDARD
  0
DICTIONARYVAR
  5
EE1
102
{ACAD_REACTORS
330
EDC
102
}
330
EDC
100
DictionaryVariables
280
     0
  1
1
  0
DICTIONARYVAR
  5
EE0
102
{ACAD_REACTORS
330
EDC
102
}
330
EDC
100
DictionaryVariables
280
     0
  1
1
  0
DICTIONARYVAR
  5
EDF
102
{ACAD_REACTORS
330
EDC
102
}
330
EDC
100
DictionaryVariables
280
     0
  1
0
  0
DICTIONARYVAR
  5
EDE
102
{ACAD_REACTORS
330
EDC
102
}
330
EDC
100
DictionaryVariables
280
     0
  1
127
  0
DICTIONARY
  5
EEB
330
36
100
AcDbDictionary
280
     1
281
     1
  3
ACAD_XREC_ROUNDTRIP
360
EEC
  0
DICTIONARY
  5
EEF
330
3E
100
AcDbDictionary
280
     1
281
     1
  3
ACAD_XREC_ROUNDTRIP
360
EF0
  0
DICTIONARY
  5
EED
330
3A
100
AcDbDictionary
280
     1
281
     1
  3
ACAD_XREC_ROUNDTRIP
360
EEE
  0
DICTIONARY
  5
EE5
330
12
100
AcDbDictionary
280
     1
281
     1
  3
ACAD_XREC_ROUNDTRIP
360
EE6
  0
DICTIONARY
  5
EE3
330
11
100
AcDbDictionary
280
     1
281
     1
  3
ACAD_XREC_ROUNDTRIP
360
EE4
  0
DICTIONARY
  5
EE7
330
13
100
AcDbDictionary
280
     1
281
     1
  3
ACAD_XREC_ROUNDTRIP
360
EE8
  0
DICTIONARY
  5
EE9
330
32
100
AcDbDictionary
280
     1
281
     1
  3
ACAD_XREC_ROUNDTRIP
360
EEA
  0
XRECORD
  5
EEC
102
{ACAD_REACTORS
330
EEB
102
}
330
EEB
100
AcDbXrecord
280
     1
102
SHADEPLOT
 70
     0
102
SHADEPLOTRESLEVEL
 70
     2
102
SHADEPLOTCUSTOMDPI
 70
   300
  0
XRECORD
  5
EF0
102
{ACAD_REACTORS
330
EEF
102
}
330
EEF
100
AcDbXrecord
280
     1
102
SHADEPLOT
 70
     0
102
SHADEPLOTRESLEVEL
 70
     2
102
SHADEPLOTCUSTOMDPI
 70
   300
  0
XRECORD
  5
EEE
102
{ACAD_REACTORS
330
EED
102
}
330
EED
100
AcDbXrecord
280
     1
102
SHADEPLOT
 70
     0
102
SHADEPLOTRESLEVEL
 70
     2
102
SHADEPLOTCUSTOMDPI
 70
   300
  0
XRECORD
  5
EE6
102
{ACAD_REACTORS
330
EE5
102
}
330
EE5
100
AcDbXrecord
280
     1
102
MATERIAL
148
0.0
149
0.0
149
0.0
 93
        0
 94
       63
282
     0
 72
     1
 77
     1
171
     1
175
     1
179
     1
273
     0
  0
XRECORD
  5
EE4
102
{ACAD_REACTORS
330
EE3
102
}
330
EE3
100
AcDbXrecord
280
     1
102
MATERIAL
148
0.0
149
0.0
149
0.0
 93
        0
 94
       63
282
     0
 72
     1
 77
     1
171
     1
175
     1
179
     1
273
     0
  0
XRECORD
  5
EE8
102
{ACAD_REACTORS
330
EE7
102
}
330
EE7
100
AcDbXrecord
280
     1
102
MATERIAL
148
0.0
149
0.0
149
0.0
 93
        0
 94
       63
282
     0
 72
     1
 77
     1
171
     1
175
     1
179
     1
273
     0
  0
XRECORD
  5
EEA
102
{ACAD_REACTORS
330
EE9
102
}
330
EE9
100
AcDbXrecord
280
     1
102
ACAD_ROUNDTRIP_PRE2007_TABLESTYLE
 90
      512
 91
        0
  1

 92
      512
 93
        0
  2

 94
      512
 95
        0
  3

  0
ENDSEC
  0
EOF
